Скачать через торрент музыку Tesla Boy - Thinking Of You бесплатно без регистрации torrent

Если у вас наблюдаются проблемы со скриншотами, переходом по ссылками, скачиванием торрентов - проблемы в блокировщике рекламы AdBlock. #хорошегоДня!


Статистика раздачи
Размер:  261 MB   |    Зарегистрирован:  5 лет 10 месяцев   |    .torrent скачан:  32 раза   |   
Раздают:  1  
   
Загрузка...
 
Автор Сообщение

Galfimbul

avatar Galfimbul


Tesla Boy - Thinking Of You
[Official Video]


Год выпуска: 2010 | Жанр: Synthpop, New Wave | Продолжительность: 00:04:27
Описание: Второй официальный видеоклип группы
Качество: DVD-VOB | Формат: MPEG-PS
Видео кодек: MPEG2 | Аудио кодек: MPEG Audio Layer 2
Видео: NTSC, 7 476 Kbps, 720*480 pixels, 29.970 fps
Аудио: 384 Kbps, 2 channels, 48.0 KHz
General
Complete name : C:\Tesla Boy - Thinking Of You (Official Video)_(HD).vob
Format : MPEG-PS
File size : 261 MiB
Duration : 4mn 27s
Overall bit rate : 8 185 Kbps

Video
ID : 224 (0xE0)
Format : MPEG Video
Format version : Version 2
Format profile : Main@Main
Format settings, Matrix : Default
Duration : 4mn 27s
Bit rate mode : Variable
Bit rate : 7 476 Kbps
Width : 720 pixels
Height : 480 pixels
Display aspect ratio : 1.500
Frame rate : 29.970 fps
Standard : NTSC
Colorimetry : 4:2:0
Scan type : Progressive
Bits/(Pixel*Frame) : 0.722
Stream size : 238 MiB (91%)

Audio
ID : 192 (0xC0)
Format : MPEG Audio
Format version : Version 1
Format profile : Layer 2
Duration : 4mn 27s
Bit rate mode : Constant
Bit rate : 384 Kbps
Channel(s) : 2 channels
Sampling rate : 48.0 KHz
Resolution : 16 bits
Stream size : 12.2 MiB (5%)


Трекер:  [ 23-Ноя-2011 11:02 ]

  

Скачать .torrent

Размер .torrent файла 10 KB


Размер: 261 MB
Хэш (hash) релиза: dd44bc0ef3e6b5a95c2398280e0fed702ba3ab09

Еще никто не оставлял запись к записи скачать торрент Tesla Boy - Thinking Of You . Будь первым!

!Обратная связь