Скачать через торрент музыку Royksopp - Bizarre Festival бесплатно без регистрации torrent

Если у вас наблюдаются проблемы со скриншотами, переходом по ссылками, скачиванием торрентов - проблемы в блокировщике рекламы AdBlock. #хорошегоДня!


Статистика раздачи
Размер:  310 MB   |    Зарегистрирован:  5 лет 10 месяцев   |    .torrent скачан:  28 раз   |   
Раздают:  1  
   
Загрузка...
 
Автор Сообщение

Galfimbul

avatar Galfimbul


Royksopp - Bizarre Festival

Год выпуска: 2002
Жанр: Electronic
Продолжительность: 00:29:32

В ролях:
Torbjorn Brundtland - keyboard, vocals
Svein Berge - keyboard, drums
Ole V. Skause - bass

Описание:
01. So Easy
02. Röyksopp's Night out
03. Clean Sweep
04. Don't Go
05. Remind Me
06. Don't Give Up

Кусочек:
http://rapidshare.com/files/208586530/royksopp_-_bizarre_festival_2002__rutracker.org_.sample.avi.html
http://depositfiles.com/files/iy1nbrtx5
http://multi-up.com/67465

Качество: TVRip
Формат: AVI
Видео кодек: XviD
Аудио кодек: MP3
Видео: Xvid 640x480 25.00fps 1298Kbps
Аудио: MPEG Audio Layer 3 48000Hz stereo 160Kbps

Код:

General
Complete name                    : G:\royksopp_-_bizarre_festival_2002_[http://рутраскер].avi
Format                           : AVI
Format/Info                      : Audio Video Interleave
File size                        : 310 MiB
Duration                         : 29mn 32s
Overall bit rate                 : 1 466 Kbps
Writing application              : VirtualDubMod 1.5.4.1 (build 2178/release)
Writing library                  : VirtualDubMod build 2178/release

Video
Format                           : MPEG-4 Visual
Format profile                   : Streaming Video@L1
Format settings, BVOP            : Yes
Format settings, QPel            : No
Format settings, GMC             : No warppoints
Format settings, Matrix          : Custom
Codec ID                         : XVID
Codec ID/Hint                    : XviD
Duration                         : 29mn 32s
Bit rate                         : 1 298 Kbps
Width                            : 640 pixels
Height                           : 480 pixels
Display aspect ratio             : 4/3
Frame rate                       : 25.000 fps
Resolution                       : 24 bits
Colorimetry                      : 4:2:0
Scan type                        : Progressive
Bits/(Pixel*Frame)               : 0.169
Stream size                      : 274 MiB (89%)
Writing library                  : XviD 1.1.2 (UTC 2006-11-01)

Audio
Format                           : MPEG Audio
Format version                   : Version 1
Format profile                   : Layer 3
Codec ID                         : 55
Codec ID/Hint                    : MP3
Duration                         : 29mn 32s
Bit rate mode                    : Constant
Bit rate                         : 160 Kbps
Minimum bit rate                 : 160 Kbps
Channel(s)                       : 2 channels
Sampling rate                    : 48.0 KHz
Resolution                       : 16 bits
Stream size                      : 33.8 MiB (11%)
Alignment                        : Aligned on interleaves
Interleave, duration             : 80 ms (2.00 video frames)
Interleave, preload duration     : 504 ms
Writing library                  : LAME3.97
Encoding settings                : CBR


Трекер:  [ 23-Ноя-2011 12:40 ]

  

Скачать .torrent

Размер .torrent файла 12 KB


Размер: 310 MB
Хэш (hash) релиза: 0b0cd0d9311cd2e3563885c217c09c846a203c48

Еще никто не оставлял запись к записи скачать торрент Royksopp - Bizarre Festival . Будь первым!

!Обратная связь