Скачать через торрент музыку Богатые и знаменитые Rich and Famous бесплатно без регистрации torrent

Если у вас наблюдаются проблемы со скриншотами, переходом по ссылками, скачиванием торрентов - проблемы в блокировщике рекламы AdBlock. #хорошегоДня!


Статистика раздачи
Размер:  697 MB   |    Зарегистрирован:  3 года 11 месяцев   |    .torrent скачан:  21 раз   |   
Раздают:  1  
   
Загрузка...
 
Автор Сообщение

Polarnik

avatar Polarnik



Богатые и знаменитые / Rich and Famous
Composed and Conducted by Georges Delerue
Limited Edition of 2000 Units

Жанр: Score | Дата выпуска: 2 февраля 2011
Издатель (лейбл): Film Score Monthly | Номер по каталогу: FSM Vol. 14 No. 2
Аудиокодек: FLAC | Тип рипа: image+.cue | Битрейт аудио: lossless
Общая продолжительность: 56:57
Источник: Рип оригинального диска из личной коллекции
* Rich and Famous *
01. Something Strange About You / End Credits (Wild) (4:37)
02. Main Title (1:56)
03. String Quartet (1:23)
04. You Owe Me One / Into Him (2:15)
05. Reading The Script / 3M2 / You’re (1:30)
06. Some Years Ago (1:31)
07. Taxi / I Lied / Teddy Bear / Liz (2:17)
08. Eighteen (3:54)
09. Goodnight / Chris / Making Love / Very Still (Alternate) / Very Still / Give Me 555 / Slowly Read It / Crying Liz (4:51)
10. Something Strange About You (Alternate) (1:00)
11. Something Strange About You / End Credits (4:05)

* One Is a Lonely Number * ( // Michel Legrand)
12. 1M1 (Main Title) (2:11)
13. 1M2 (Alone In The City) (1:02)
14. 2M1 (The Dress) (1:34)
15. 4M1 (Sad Memories) (1:34)
16. 5M1 (Loneliness) (1:35)
17. 5M2 (Source Rock) (4:11)
18. Le Soleil, La Mer Et Les Bateaux (3:56)
19. 7M1 (The Diving Board) / Shakespearean Fanfare (1:31)
20. 9M1 (Moving On) (3:48)
21. 9M2 (The Gift) / Fender Rhodes (The Chess Game) (1:38)
22. 10M1 (The Photo) (1:00)
23. 10M2 (Amy Hits Bottom) (2:00)
24. 11M1 (At The Morgue) (1:26)
25. 12M1 (Finale And End Cast) (1:58)
Exact Audio Copy V1.0 beta 3 from 29. August 2011

EAC extraction logfile from 1. September 2013, 12:15

Georges Delerue / Rich and Famous (FSM Vol. 14 No. 2)

Used drive : TSSTcorpCDDVDW TS-L633C Adapter: 2 ID: 0

Read mode : SecureUtilize accurate stream : YesDefeat audio cache : YesMake use of C2 pointers : No

Read offset correction : 6Overread into Lead-In and Lead-Out : NoFill up missing offset samples with silence : YesDelete leading and trailing silent blocks : NoNull samples used in CRC calculations : YesUsed interface : Native Win32 interface for Win NT & 2000

Used output format : Internal WAV RoutinesSample format : 44.100 Hz; 16 Bit; Stereo

TOC of the extracted CD

Track | Start | Length | Start sector | End sector --------------------------------------------------------- 1 | 0:00.00 | 4:37.60 | 0 | 20834 2 | 4:37.60 | 1:55.72 | 20835 | 29531 3 | 6:33.57 | 1:23.68 | 29532 | 35824 4 | 7:57.50 | 2:15.23 | 35825 | 45972 5 | 10:12.73 | 1:30.70 | 45973 | 52792 6 | 11:43.68 | 1:31.50 | 52793 | 59667 7 | 13:15.43 | 2:17.65 | 59668 | 70007 8 | 15:33.33 | 3:54.67 | 70008 | 87624 9 | 19:28.25 | 4:01.16 | 87625 | 105715 10 | 23:29.41 | 1:00.41 | 105716 | 110256 11 | 24:30.07 | 4:05.44 | 110257 | 128675 12 | 28:35.51 | 2:11.54 | 128676 | 138554 13 | 30:47.30 | 1:02.29 | 138555 | 143233 14 | 31:49.59 | 1:34.21 | 143234 | 150304 15 | 33:24.05 | 1:34.67 | 150305 | 157421 16 | 34:58.72 | 1:35.19 | 157422 | 164565 17 | 36:34.16 | 4:11.22 | 164566 | 183412 18 | 40:45.38 | 3:56.14 | 183413 | 201126 19 | 44:41.52 | 1:31.13 | 201127 | 207964 20 | 46:12.65 | 3:48.01 | 207965 | 225065 21 | 50:00.66 | 1:38.42 | 225066 | 232457 22 | 51:39.33 | 1:00.21 | 232458 | 236978 23 | 52:39.54 | 2:00.28 | 236979 | 246006 24 | 54:40.07 | 1:26.21 | 246007 | 252477 25 | 56:06.28 | 1:58.34 | 252478 | 261361

Range status and errors

Selected range

Filename D:\Georges Delerue - Rich and Famous (FSM Vol. 14 No. 2).wav

Peak level 99.9 % Extraction speed 3.9 X Range quality 100.0 % Test CRC 9D98C734 Copy CRC 9D98C734 Copy OK

No errors occurred

AccurateRip summary

Track 1 accurately ripped (confidence 5) [CBC26F5E] (AR v2)Track 2 accurately ripped (confidence 6) [3E72797F] (AR v2)Track 3 accurately ripped (confidence 6) [F6A22049] (AR v2)Track 4 accurately ripped (confidence 6) [C1DBC222] (AR v2)Track 5 accurately ripped (confidence 6) [65088384] (AR v2)Track 6 accurately ripped (confidence 6) [5BE4BE65] (AR v2)Track 7 accurately ripped (confidence 6) [BE9927CA] (AR v2)Track 8 accurately ripped (confidence 6) [3B1EE651] (AR v2)Track 9 accurately ripped (confidence 6) [0442E2E1] (AR v2)Track 10 accurately ripped (confidence 6) [8DCC5876] (AR v2)Track 11 accurately ripped (confidence 6) [961E6529] (AR v2)Track 12 accurately ripped (confidence 6) [3109020B] (AR v2)Track 13 accurately ripped (confidence 6) [F1601769] (AR v2)Track 14 accurately ripped (confidence 6) [722EFEB4] (AR v2)Track 15 accurately ripped (confidence 6) [94A3BF4D] (AR v2)Track 16 accurately ripped (confidence 6) [4ACE3298] (AR v2)Track 17 accurately ripped (confidence 6) [860960C8] (AR v2)Track 18 accurately ripped (confidence 6) [BB6BE581] (AR v2)Track 19 accurately ripped (confidence 6) [D92556D5] (AR v2)Track 20 accurately ripped (confidence 6) [FAC0C5E1] (AR v2)Track 21 accurately ripped (confidence 6) [0D7B9024] (AR v2)Track 22 accurately ripped (confidence 6) [59A7C607] (AR v2)Track 23 accurately ripped (confidence 6) [CCC8DB2F] (AR v2)Track 24 accurately ripped (confidence 6) [FE1EC839] (AR v2)Track 25 accurately ripped (confidence 6) [BCDB8264] (AR v2)

All tracks accurately ripped

End of status report

---- CUETools DB Plugin V2.1.4

[CTDB TOCID: QyIVSaNKEqd8VxBg83YisUzhudw-] disk not present in databaseSubmit result: QyIVSaNKEqd8VxBg83YisUzhudw- has been uploaded

==== Log checksum 849FD8E3FC25C4DACCB807FBB57B89951E6E52037D5013795C4A60EFF324E3C6 ====
REM GENRE SoundtrackREM DATE 1981REM DISCID 560D9C19REM COMMENT "ExactAudioCopy v1.0b3"PERFORMER "Georges Delerue"TITLE "Rich and Famous (FSM Vol. 14 No. 2)"FILE "Georges Delerue - Rich and Famous (FSM Vol. 14 No. 2).wav" WAVE TRACK 01 AUDIO TITLE "Something Strange About You/End Credits (Wild)" PERFORMER "Georges Delerue" INDEX 01 00:00:00 TRACK 02 AUDIO TITLE "Main Title" PERFORMER "Georges Delerue" INDEX 00 04:33:41 INDEX 01 04:37:60 TRACK 03 AUDIO TITLE "String Quartet" PERFORMER "Georges Delerue" INDEX 00 06:32:02 INDEX 01 06:33:57 TRACK 04 AUDIO TITLE "You Owe Me One/Into Him" PERFORMER "Georges Delerue" INDEX 00 07:55:23 INDEX 01 07:57:50 TRACK 05 AUDIO TITLE "Reading the Script/3M2/You’re OK" PERFORMER "Georges Delerue" INDEX 00 10:11:05 INDEX 01 10:12:73 TRACK 06 AUDIO TITLE "Some Years Ago" PERFORMER "Georges Delerue" INDEX 00 11:42:02 INDEX 01 11:43:68 TRACK 07 AUDIO TITLE "Taxi/I Lied/Teddy Bear/Liz" PERFORMER "Georges Delerue" INDEX 00 13:15:04 INDEX 01 13:15:43 TRACK 08 AUDIO TITLE "Eighteen" PERFORMER "Georges Delerue" INDEX 00 15:31:52 INDEX 01 15:33:33 TRACK 09 AUDIO TITLE "Goodnight/Chris/Making Love/Very Still (Alternate)/Very Still/Give Me 555/Slo..." PERFORMER "Georges Delerue" INDEX 00 19:26:18 INDEX 01 19:28:25 TRACK 10 AUDIO TITLE "Something Strange About You (Alternate)" PERFORMER "Georges Delerue" INDEX 00 23:24:05 INDEX 01 23:29:41 TRACK 11 AUDIO TITLE "Something Strange About You/End Credits" PERFORMER "Georges Delerue" INDEX 00 24:26:09 INDEX 01 24:30:07 TRACK 12 AUDIO TITLE "1M1 (Main Title)" PERFORMER "Michel Legrand" INDEX 00 28:29:31 INDEX 01 28:35:51 TRACK 13 AUDIO TITLE "1M2 (Alone in the City)" PERFORMER "Michel Legrand" INDEX 00 30:46:07 INDEX 01 30:47:30 TRACK 14 AUDIO TITLE "2M1 (The Dress)" PERFORMER "Michel Legrand" INDEX 00 31:48:21 INDEX 01 31:49:59 TRACK 15 AUDIO TITLE "4M1 (Sad Memories)" PERFORMER "Michel Legrand" INDEX 00 33:22:57 INDEX 01 33:24:05 TRACK 16 AUDIO TITLE "5M1 (Loneliness)" PERFORMER "Michel Legrand" INDEX 00 34:56:57 INDEX 01 34:58:72 TRACK 17 AUDIO TITLE "5M2 (Source Rock)" PERFORMER "Michel Legrand" INDEX 00 36:32:42 INDEX 01 36:34:16 TRACK 18 AUDIO TITLE "Le soleil, la mer et les bateaux" PERFORMER "Michel Legrand" INDEX 00 40:42:57 INDEX 01 40:45:38 TRACK 19 AUDIO TITLE "7M1 (The Diving Board)/Shakespearean Fanfare (Mel Stuart)" PERFORMER "Michel Legrand" INDEX 00 44:39:38 INDEX 01 44:41:52 TRACK 20 AUDIO TITLE "9M1 (Moving On)" PERFORMER "Michel Legrand" INDEX 00 46:11:39 INDEX 01 46:12:65 TRACK 21 AUDIO TITLE "9M2 (The Gift)/Fender Rhodes (The Chess Game)" PERFORMER "Michel Legrand" INDEX 00 49:57:61 INDEX 01 50:00:66 TRACK 22 AUDIO TITLE "10M1 (The Photo)" PERFORMER "Michel Legrand" INDEX 00 51:38:07 INDEX 01 51:39:33 TRACK 23 AUDIO TITLE "10M2 (Amy Hits Bottom)" PERFORMER "Michel Legrand" INDEX 00 52:38:25 INDEX 01 52:39:54 TRACK 24 AUDIO TITLE "11M1 (At the Morgue)" PERFORMER "Michel Legrand" INDEX 00 54:37:69 INDEX 01 54:40:07 TRACK 25 AUDIO TITLE "12M1 (Finale and End Cast)" PERFORMER "Michel Legrand" INDEX 00 56:04:61 INDEX 01 56:06:28


Трекер:  [ 25-Сен-2013 08:27 ]

  

Скачать .torrent

Размер .torrent файла 15 KB


Размер: 697 MB
Хэш (hash) релиза: 0b96d457df635d978335093bd100210fde525467

Еще никто не оставлял запись к записи скачать торрент Богатые и знаменитые Rich and Famous . Будь первым!

!Обратная связь