Скачать через торрент музыку Как бумеранг Comme un boomerang бесплатно без регистрации torrent

Если у вас наблюдаются проблемы со скриншотами, переходом по ссылками, скачиванием торрентов - проблемы в блокировщике рекламы AdBlock. #хорошегоДня!


Статистика раздачи
Размер:  282 MB   |    Зарегистрирован:  4 года   |    .torrent скачан:  22 раза   |   
Раздают:  1  
   
Загрузка...
 
Автор Сообщение

Polarnik

avatar Polarnik



Как бумеранг / Comme un boomerang
Composed and Conducted by Georges Delerue

Жанр: Score | Дата выпуска: 1992
Издатель (лейбл): CAM | Номер по каталогу: CSE 032
Аудиокодек: FLAC | Тип рипа: image+.cue | Битрейт аудио: lossless
Общая продолжительность: 29:06
Источник: Рип оригинального диска из личной коллекции
01. Générique
02. Boomerang
03. Free
04. Espoir
05. Générique fin
06. Comme une ballade
07. La lettre
08. La visite
09. Le casino Ruhl
10. La recontre
11. La mélancolie
Exact Audio Copy V1.0 beta 3 from 29. August 2011

EAC extraction logfile from 1. September 2013, 13:40

Georges Delerue / Comme un boomerang

Used drive : TSSTcorpCDDVDW TS-L633C Adapter: 2 ID: 0

Read mode : SecureUtilize accurate stream : YesDefeat audio cache : YesMake use of C2 pointers : No

Read offset correction : 6Overread into Lead-In and Lead-Out : NoFill up missing offset samples with silence : YesDelete leading and trailing silent blocks : NoNull samples used in CRC calculations : YesUsed interface : Native Win32 interface for Win NT & 2000

Used output format : Internal WAV RoutinesSample format : 44.100 Hz; 16 Bit; Stereo

TOC of the extracted CD

Track | Start | Length | Start sector | End sector --------------------------------------------------------- 1 | 0:00.32 | 1:12.10 | 32 | 5441 2 | 1:12.42 | 2:42.65 | 5442 | 17656 3 | 3:55.32 | 6:03.55 | 17657 | 44936 4 | 9:59.12 | 1:36.40 | 44937 | 52176 5 | 11:35.52 | 2:26.60 | 52177 | 63186 6 | 14:02.37 | 3:41.25 | 63187 | 79786 7 | 17:43.62 | 1:20.33 | 79787 | 85819 8 | 19:04.20 | 1:14.67 | 85820 | 91436 9 | 20:19.12 | 3:34.25 | 91437 | 107511 10 | 23:53.37 | 1:19.53 | 107512 | 113489 11 | 25:13.15 | 3:59.15 | 113490 | 131429

Range status and errors

Selected range

Filename D:\Georges Delerue - Comme un boomerang (CSE 032).wav

Peak level 100.0 % Extraction speed 3.2 X Range quality 100.0 % Test CRC CBD11C13 Copy CRC CBD11C13 Copy OK

No errors occurred

AccurateRip summary

Track 1 accurately ripped (confidence 1) [422616F4] (AR v2)Track 2 accurately ripped (confidence 1) [5875BE8B] (AR v2)Track 3 accurately ripped (confidence 1) [D4C8175D] (AR v2)Track 4 accurately ripped (confidence 1) [7A2DE2C5] (AR v2)Track 5 accurately ripped (confidence 1) [077A20D8] (AR v2)Track 6 accurately ripped (confidence 1) [1876D91D] (AR v2)Track 7 accurately ripped (confidence 1) [9411A48B] (AR v2)Track 8 accurately ripped (confidence 1) [AA4A5257] (AR v2)Track 9 accurately ripped (confidence 1) [9B9B519A] (AR v2)Track 10 accurately ripped (confidence 1) [67CF21F5] (AR v2)Track 11 accurately ripped (confidence 1) [80D4520A] (AR v2)

All tracks accurately ripped

End of status report

---- CUETools DB Plugin V2.1.4

[CTDB TOCID: M7JCyr6JZ367ZRMPKwjuyHT1cA8-] disk not present in databaseSubmit result: M7JCyr6JZ367ZRMPKwjuyHT1cA8- has been uploaded

==== Log checksum 178763B0685AD94248481BCA208831F5540E913758B793391ED928AE538C3F32 ====
REM GENRE SoundtrackREM DATE 1976REM DISCID 7D06D80BREM COMMENT "ExactAudioCopy v1.0b3"PERFORMER "Georges Delerue"TITLE "Comme un boomerang"FILE "Georges Delerue - Comme un boomerang (CSE 032).wav" WAVE TRACK 01 AUDIO TITLE "Generique" PERFORMER "Georges Delerue" INDEX 00 00:00:00 INDEX 01 00:00:32 TRACK 02 AUDIO TITLE "Boomerang" PERFORMER "Georges Delerue" INDEX 00 01:10:30 INDEX 01 01:12:42 TRACK 03 AUDIO TITLE "Free" PERFORMER "Georges Delerue" INDEX 00 03:53:30 INDEX 01 03:55:32 TRACK 04 AUDIO TITLE "Espoir" PERFORMER "Georges Delerue" INDEX 00 09:57:30 INDEX 01 09:59:12 TRACK 05 AUDIO TITLE "Generique du fin" PERFORMER "Georges Delerue" INDEX 00 11:33:30 INDEX 01 11:35:52 TRACK 06 AUDIO TITLE "Comme une ballade" PERFORMER "Georges Delerue" INDEX 00 13:59:30 INDEX 01 14:02:37 TRACK 07 AUDIO TITLE "La lettre" PERFORMER "Georges Delerue" INDEX 00 17:41:30 INDEX 01 17:43:62 TRACK 08 AUDIO TITLE "La visite" PERFORMER "Georges Delerue" INDEX 00 19:01:30 INDEX 01 19:04:20 TRACK 09 AUDIO TITLE "Le casino Ruhl" PERFORMER "Georges Delerue" INDEX 00 20:16:30 INDEX 01 20:19:12 TRACK 10 AUDIO TITLE "La rencontre" PERFORMER "Georges Delerue" INDEX 00 23:51:30 INDEX 01 23:53:37 TRACK 11 AUDIO TITLE "La melancolie" PERFORMER "Georges Delerue" INDEX 00 25:10:30 INDEX 01 25:13:15


Трекер:  [ 25-Сен-2013 08:27 ]

  

Скачать .torrent

Размер .torrent файла 12 KB


Размер: 282 MB
Хэш (hash) релиза: 7bf7a80203c18b3c9af46cf233697774122882a9

Еще никто не оставлял запись к записи скачать торрент Как бумеранг Comme un boomerang . Будь первым!

!Обратная связь