Скачать порно через торрент Fuurinkanzan Ветряная мелница UnionPeer.org бесплатно онлайн HD качество

Скачать новое порно 2015, 2014 новинки через торрент UnionPeer.org

Порно торрент бесплатно ЮнионПир.орг

Если у вас наблюдаются проблемы со скриншотами, переходом по ссылками, скачиванием торрентов - проблемы в блокировщике рекламы AdBlock. #хорошегоДня!


Статистика раздачи
Размер:  432 MB   |    Зарегистрирован:  4 года 2 месяца   |    .torrent скачан:  127 раз   |   
Раздают:  1  
   
Загрузка...
 
Автор Сообщение

LinGr

avatar LinGr



Fuurinkanzan
Ветряная мелница

Год производства: 2013 г.
Жанр: Rape, Group Sex, Knights, Titsjob, Mystic
Серии: ep.1
Продолжительность: 25 min
Цензура: Есть во всех файлах

Язык: Японский
Озвучка: Оригинальная
Студия: Angelfish

Описание: В далёком царстве государстве идёт кровопролитная война, где жадные король пытается поработить всё в округе своего королевства построенного на костях своих предшественников. Только один из генералов Sanada Hikosaburo бросил ему вызов пообещав что освободит жителей от угнетения зловещего монстра каковы его все считают. Но король не боится угроз ведь у него многотысячная армия и он явно не намерен отступать от задуманного из-за одного препятствия, шаг за шагом он порабощает деревню за деревней и вместе с ними берёт себе в служанки принцесс как трофей. Что он с ними вытворяет остаётся только догадываться. Hikosaburo спасёт нас шепчут про себя принцессы ведь больше надеяться не на кого а тем временем им приходится подчинятся этому извращенцу.© Ксения Нефёдова

Качество видео: DVDRip
Формат видео: MP4
Видео кодек: H.264/AVC
Аудио кодек: AAC
Видео: 720x480, 16:9, 28.532 fps, 2407 Kbps, 8 bit
Аудио 1: JAP, 48.0 KHz, 384 Kbps, 2 channels

Общее
Полное имя : E:\downloads\hentai\Fuurinkanzan\Fuurinkanzan ep.1.mp4
Формат : MPEG-4
Профиль формата : Base Media
Идентификатор кодека : isom
Размер файла : 432 Мбайт
Продолжительность : 25 м.
Режим общего битрейта : Переменный
Общий поток : 2407 Кбит/сек
Дата кодирования : UTC 2013-09-01 18:09:40
Дата пометки : UTC 2013-09-01 18:09:40

Видео
Идентификатор : 1
Формат : AVC
Формат/Информация : Advanced Video Codec
Профиль формата : High@L3.2
Параметр CABAC формата : Да
Параметр ReFrames формата : 5 кадров
Идентификатор кодека : avc1
Идентификатор кодека/Информация : Advanced Video Coding
Продолжительность : 25 м.
Битрейт : 2022 Кбит/сек
Максимальный битрейт : 4849 Кбит/сек
Ширина : 720 пикселей
Высота : 480 пикселей
Соотношение сторон : 16:9
Соотношение сторон в оригинале : 16:9
Режим частоты кадров : Постоянный
Частота кадров : 28,532 кадров/сек
Частота кадров в оригинале : 29,970 кадров/сек
Стандарт вещания : NTSC
Цветовое пространство : YUV
Субдискретизация насыщенности : 4:2:0
Битовая глубина : 8 бит
Тип развёртки : Прогрессивная
Бит/(Пиксели*Кадры) : 0.205
Размер потока : 363 Мбайт (84%)
Библиотека кодирования : x264 core 130 r2273 b3065e6
Настройки программы : cabac=1 / ref=5 / deblock=1:-2:-2 / analyse=0x3:0x113 / me=umh / subme=7 / psy=1 / psy_rd=1.00:0.00 / mixed_ref=1 / me_range=64 / chroma_me=1 / trellis=2 / 8x8dct=1 / cqm=0 / deadzone=21,11 / fast_pskip=1 / chroma_qp_offset=-2 / threads=12 / lookahead_threads=2 / sliced_threads=0 / nr=0 / decimate=1 / interlaced=0 / bluray_compat=0 / constrained_intra=0 / bframes=3 / b_pyramid=2 / b_adapt=2 / b_bias=0 / direct=3 / weightb=1 / open_gop=0 / weightp=2 / keyint=250 / keyint_min=25 / scenecut=40 / intra_refresh=0 / rc_lookahead=40 / rc=crf / mbtree=1 / crf=16.0 / qcomp=0.60 / qpmin=0 / qpmax=69 / qpstep=4 / ip_ratio=1.40 / aq=1:1.50
Дата кодирования : UTC 2013-09-01 18:09:40
Дата пометки : UTC 2013-09-01 18:09:49

Аудио
Идентификатор : 2
Формат : AAC
Формат/Информация : Advanced Audio Codec
Профиль формата : LC
Идентификатор кодека : 40
Продолжительность : 25 м.
Вид битрейта : Переменный
Битрейт : 384 Кбит/сек
Максимальный битрейт : 474 Кбит/сек
Каналы : 2 канала
Расположение каналов : Front: L R
Частота : 48,0 КГц
Метод сжатия : С потерями
Задержка видео : 70 мс.
Размер потока : 68,3 Мбайт (16%)
Дата кодирования : UTC 2013-09-01 18:09:46
Дата пометки : UTC 2013-09-01 18:09:49



Трекер:  [ 03-Сен-2013 15:36 ]

  

Скачать .torrent

Размер .torrent файла 68 KB


Размер: 432 MB
Хэш (hash) релиза: eb6c1a654cc5bcde9a062f856421deb36e6fcdd8

bot

Топик был перенесен в форум Хентай | С цензурой

Перенес LinGr

Хотите добавить комментарий к записи скачать торрент Fuurinkanzan Ветряная мелница

!Обратная связь