Скачать порно через торрент Shin Hitou Meguri Горячие источники UnionPeer.org бесплатно онлайн HD качество

Скачать новое порно 2015, 2014 новинки через торрент UnionPeer.org

Порно торрент бесплатно ЮнионПир.орг

Если у вас наблюдаются проблемы со скриншотами, переходом по ссылками, скачиванием торрентов - проблемы в блокировщике рекламы AdBlock. #хорошегоДня!


Статистика раздачи
Размер:  265 MB   |    Зарегистрирован:  3 года 11 месяцев   |    .torrent скачан:  259 раз   |   
Раздают:  1   Качают:  1  
   
Загрузка...
 
Автор Сообщение

LinGr

avatar LinGr



Shin Hitou Meguri
Горячие источники. Новые приключения.

Год производства: 2013 г.
Жанр: Rape, Oral sex, Titsjob,
Серии: ep. 1
Продолжительность: 28 мин.
Цензура: Есть во всех файлах

Язык: Японский
Озвучка: Оригинальная
Режиссер: Nobitome Youta
Автор оригинала: Potage
Студия: Poro

Описание: История о гостинице на горячих источниках. Бандиты пристают к владелице гостиницы.
В этот момент появляется полицейский, и спасает хозяйку от бандитов.
Но, ничто в этом мире не бывает бесплатно, и защитник требует оплаты в виде сексуальных услуг от хозяйки и ее горничных.

П.С. Описание полная отсебятина. При нахождении более правильного, заменю.


Качество видео: DVDRip
Формат видео: MP4
Видео кодек: H.264/AVC
Аудио кодек: AAC
Видео: 720x480, 16:9, 25.606 fps, 1293 Kbps, 8 bit
Аудио 1: JAP, 48.0 KHz, 192 Kbps, 2 channels

Общее
Полное имя : E:\downloads\hentai\Shin Hitou Meguri\Shin Hitou Meguri ep.1.mp4
Формат : MPEG-4
Профиль формата : Base Media / Version 2
Идентификатор кодека : mp42
Размер файла : 265 Мбайт
Продолжительность : 28 м.
Режим общего битрейта : Переменный
Общий поток : 1293 Кбит/сек
Дата кодирования : UTC 2013-08-31 04:24:16
Дата пометки : UTC 2013-08-31 04:24:16

Видео
Идентификатор : 1
Формат : AVC
Формат/Информация : Advanced Video Codec
Профиль формата : High@L3.2
Параметр CABAC формата : Да
Параметр ReFrames формата : 5 кадров
Идентификатор кодека : avc1
Идентификатор кодека/Информация : Advanced Video Coding
Продолжительность : 28 м.
Битрейт : 1099 Кбит/сек
Максимальный битрейт : 3436 Кбит/сек
Ширина : 720 пикселей
Высота : 480 пикселей
Соотношение сторон : 16:9
Соотношение сторон в оригинале : 16:9
Режим частоты кадров : Переменный
Частота кадров : 25,606 кадров/сек
Частота кадров в оригинале : 29,970 кадров/сек
Минимальная частота кадров : 14,985 кадров/сек
Максимальная частота кадров : 119,880 кадров/сек
Стандарт вещания : NTSC
Цветовое пространство : YUV
Субдискретизация насыщенности : 4:2:0
Битовая глубина : 8 бит
Тип развёртки : Прогрессивная
Бит/(Пиксели*Кадры) : 0.124
Размер потока : 225 Мбайт (85%)
Заголовок : nhml@GPAC0.5.1-DEV-rev4280+44M git-0f0e3eb
Библиотека кодирования : x264 core 130 r2273 b3065e6
Настройки программы : cabac=1 / ref=5 / deblock=1:-2:-2 / analyse=0x3:0x113 / me=umh / subme=7 / psy=1 / psy_rd=1.00:0.00 / mixed_ref=1 / me_range=32 / chroma_me=1 / trellis=2 / 8x8dct=1 / cqm=0 / deadzone=21,11 / fast_pskip=1 / chroma_qp_offset=-2 / threads=12 / lookahead_threads=2 / sliced_threads=0 / nr=0 / decimate=1 / interlaced=0 / bluray_compat=0 / constrained_intra=0 / bframes=3 / b_pyramid=2 / b_adapt=2 / b_bias=0 / direct=3 / weightb=1 / open_gop=0 / weightp=2 / keyint=250 / keyint_min=25 / scenecut=40 / intra_refresh=0 / rc_lookahead=40 / rc=crf / mbtree=1 / crf=16.0 / qcomp=0.60 / qpmin=0 / qpmax=69 / qpstep=4 / ip_ratio=1.40 / aq=1:1.50
Дата кодирования : UTC 2013-08-31 04:24:16
Дата пометки : UTC 2013-08-31 04:24:22

Аудио
Идентификатор : 2
Формат : AAC
Формат/Информация : Advanced Audio Codec
Профиль формата : LC
Идентификатор кодека : 40
Продолжительность : 28 м.
Вид битрейта : Переменный
Битрейт : 192 Кбит/сек
Максимальный битрейт : 210 Кбит/сек
Каналы : 2 канала
Расположение каналов : Front: L R
Частота : 48,0 КГц
Метод сжатия : С потерями
Размер потока : 38,9 Мбайт (15%)
Дата кодирования : UTC 2013-08-31 03:53:34
Дата пометки : UTC 2013-08-31 04:24:22


Трекер:  [ 03-Сен-2013 15:36 ]

  

Скачать .torrent

Размер .torrent файла 42 KB


Размер: 265 MB
Хэш (hash) релиза: 864d999ded1946158f7860c5f8a123f8b8b565cc

Торренты, похожие на Shin Hitou Meguri Горячие источники скачать торрент

Форум Название Автор Размер S L Добавлен
Хентай | С цензурой ·· Shin Hitou Meguri / Снова на горячих источниках (Nobitome Youta / PoRO) (ep. 1) [cen] [2013 г., Ahegao, Oral sex, Rape, Titsjob, DVD5] [jap] LinGr 41396490933.86 GB 0 0 1385326443

23:54

24-Ноя-13

bot

Топик был перенесен в форум Хентай | С цензурой

Перенес LinGr

Хотите добавить комментарий к записи скачать торрент Shin Hitou Meguri Горячие источники

!Обратная связь