Скачать через торрент музыку Богатство в любви Rich in Love бесплатно без регистрации torrent

Если у вас наблюдаются проблемы со скриншотами, переходом по ссылками, скачиванием торрентов - проблемы в блокировщике рекламы AdBlock. #хорошегоДня!


Статистика раздачи
Размер:  230 MB   |    Зарегистрирован:  4 года   |    .torrent скачан:  24 раза   |   
Раздают:  1  
   
Загрузка...
 
Автор Сообщение

Polarnik

avatar Polarnik



Богатство в любви / Rich in Love
Composed and Conducted by Georges Delerue

Жанр: Score | Дата выпуска: 1992
Издатель (лейбл): Varèse Sarabande | Номер по каталогу: VSD-5370
Аудиокодек: FLAC | Тип рипа: image+.cue | Битрейт аудио: lossless
Общая продолжительность: 27:53
Источник: Рип оригинального диска из личной коллекции
01. Main Title
02. We Have to Find Her
03. Hello Mother
04. Put the Best Face on It
05. Stop Thinking About Her
06. Good to Have You Home
07. Lulu''s Exit / The Kiss
08. Warren Waits / Sunset
09. Time to Move On
10. Of Course You Can
11. Lucille and Wayne Make Love
12. Let''s Take a Walk
13. I Got Her Pregnant
14. Lucille and Bill
15. Escape on Mower
16. Leaving the House
Exact Audio Copy V1.0 beta 3 from 29. August 2011

EAC extraction logfile from 1. September 2013, 10:53

Georges Delerue / Rich in Love

Used drive : TSSTcorpCDDVDW TS-L633C Adapter: 2 ID: 0

Read mode : SecureUtilize accurate stream : YesDefeat audio cache : YesMake use of C2 pointers : No

Read offset correction : 6Overread into Lead-In and Lead-Out : NoFill up missing offset samples with silence : YesDelete leading and trailing silent blocks : NoNull samples used in CRC calculations : YesUsed interface : Native Win32 interface for Win NT & 2000

Used output format : Internal WAV RoutinesSample format : 44.100 Hz; 16 Bit; Stereo

TOC of the extracted CD

Track | Start | Length | Start sector | End sector --------------------------------------------------------- 1 | 0:00.00 | 1:24.45 | 0 | 6344 2 | 1:24.45 | 1:28.23 | 6345 | 12967 3 | 2:52.68 | 1:44.45 | 12968 | 20812 4 | 4:37.38 | 1:14.20 | 20813 | 26382 5 | 5:51.58 | 3:51.20 | 26383 | 43727 6 | 9:43.03 | 0:47.70 | 43728 | 47322 7 | 10:30.73 | 1:14.60 | 47323 | 52932 8 | 11:45.58 | 2:09.27 | 52933 | 62634 9 | 13:55.10 | 2:18.53 | 62635 | 73037 10 | 16:13.63 | 1:29.65 | 73038 | 79777 11 | 17:43.53 | 1:00.50 | 79778 | 84327 12 | 18:44.28 | 2:55.57 | 84328 | 97509 13 | 21:40.10 | 2:02.60 | 97510 | 106719 14 | 23:42.70 | 1:24.48 | 106720 | 113067 15 | 25:07.43 | 0:45.07 | 113068 | 116449 16 | 25:52.50 | 2:00.13 | 116450 | 125462

Range status and errors

Selected range

Filename D:\Georges Delerue - Rich in Love (VSD-5370).wav

Peak level 94.3 % Extraction speed 3.1 X Range quality 100.0 % Test CRC 065CA60E Copy CRC 065CA60E Copy OK

No errors occurred

AccurateRip summary

Track 1 accurately ripped (confidence 1) [FE7F9FBD] (AR v2)Track 2 accurately ripped (confidence 1) [4E71E717] (AR v2)Track 3 accurately ripped (confidence 1) [900660AA] (AR v2)Track 4 accurately ripped (confidence 1) [E2CCD00B] (AR v2)Track 5 accurately ripped (confidence 1) [12B7F6D9] (AR v2)Track 6 accurately ripped (confidence 1) [8E28DE8A] (AR v2)Track 7 accurately ripped (confidence 1) [DE28CFCE] (AR v2)Track 8 accurately ripped (confidence 1) [7DD01290] (AR v2)Track 9 accurately ripped (confidence 1) [A51910D3] (AR v2)Track 10 accurately ripped (confidence 1) [61FB5B52] (AR v2)Track 11 accurately ripped (confidence 1) [AC61BB1A] (AR v2)Track 12 accurately ripped (confidence 1) [48A9D08F] (AR v2)Track 13 accurately ripped (confidence 1) [BCEF9BAF] (AR v2)Track 14 accurately ripped (confidence 1) [06A2F304] (AR v2)Track 15 accurately ripped (confidence 1) [C3DA3463] (AR v2)Track 16 accurately ripped (confidence 1) [CEF779B3] (AR v2)

All tracks accurately ripped

End of status report

---- CUETools DB Plugin V2.1.4

[CTDB TOCID: x7uMPBqkwH0m4NLECZ2fSDq.bO0-] disk not present in databaseSubmit result: x7uMPBqkwH0m4NLECZ2fSDq.bO0- has been uploaded

==== Log checksum F74EBC6287B9D372247955C62F826F0ED158D7C4A2871822CC29E7F96290A5A9 ====
REM GENRE SoundtrackREM DATE 1992REM DISCID D0068810REM COMMENT "ExactAudioCopy v1.0b3"PERFORMER "Georges Delerue"TITLE "Rich in Love"FILE "Georges Delerue - Rich in Love (VSD-5370).wav" WAVE TRACK 01 AUDIO TITLE "Main Title" PERFORMER "Georges Delerue" INDEX 01 00:00:00 TRACK 02 AUDIO TITLE "We Have to Find Her" PERFORMER "Georges Delerue" INDEX 01 01:24:45 TRACK 03 AUDIO TITLE "Hello Mother" PERFORMER "Georges Delerue" INDEX 01 02:52:68 TRACK 04 AUDIO TITLE "Put the Best Face On It" PERFORMER "Georges Delerue" INDEX 01 04:37:38 TRACK 05 AUDIO TITLE "Stop Thinking About Her" PERFORMER "Georges Delerue" INDEX 01 05:51:58 TRACK 06 AUDIO TITLE "Good to Have You Home" PERFORMER "Georges Delerue" INDEX 01 09:43:03 TRACK 07 AUDIO TITLE "Lulu''s Exit/The Kiss" PERFORMER "Georges Delerue" INDEX 01 10:30:73 TRACK 08 AUDIO TITLE "Warren Waits/Sunset" PERFORMER "Georges Delerue" INDEX 01 11:45:58 TRACK 09 AUDIO TITLE "Time to Move On" PERFORMER "Georges Delerue" INDEX 01 13:55:10 TRACK 10 AUDIO TITLE "Of Course You Can" PERFORMER "Georges Delerue" INDEX 01 16:13:63 TRACK 11 AUDIO TITLE "Lucille and Wayne Make Love" PERFORMER "Georges Delerue" INDEX 01 17:43:53 TRACK 12 AUDIO TITLE "Let''s Take a Walk" PERFORMER "Georges Delerue" INDEX 01 18:44:28 TRACK 13 AUDIO TITLE "I Got Her Pregnant" PERFORMER "Georges Delerue" INDEX 01 21:40:10 TRACK 14 AUDIO TITLE "Lucille and Bill" PERFORMER "Georges Delerue" INDEX 01 23:42:70 TRACK 15 AUDIO TITLE "Escape On Mower" PERFORMER "Georges Delerue" INDEX 01 25:07:43 TRACK 16 AUDIO TITLE "Leaving the House" PERFORMER "Georges Delerue" INDEX 01 25:52:50


Трекер:  [ 25-Сен-2013 08:28 ]

  

Скачать .torrent

Размер .torrent файла 19 KB


Размер: 230 MB
Хэш (hash) релиза: da3b041efeaa042b026c7f21c402f3dd1bd41586

Еще никто не оставлял запись к записи скачать торрент Богатство в любви Rich in Love . Будь первым!

!Обратная связь