Скачать через торрент музыку Tesla Boy - Electric Lady бесплатно без регистрации torrent

Если у вас наблюдаются проблемы со скриншотами, переходом по ссылками, скачиванием торрентов - проблемы в блокировщике рекламы AdBlock. #хорошегоДня!


Статистика раздачи
Размер:  30 MB   |    Зарегистрирован:  5 лет 10 месяцев   |    .torrent скачан:  48 раз   |   
Раздают:  2  
   
Загрузка...
 
Автор Сообщение

Galfimbul

avatar Galfimbul


Tesla Boy - Electric Lady

Год выпуска: 2009
Жанр: New Wave/Electro/Synthpop
Продолжительность: 00:03:23

Режиссер: igor shmelev

В ролях: Anton Sevidov - lead and back-vocals, keys
Dima Midborn - bass, back-vocals
Boris Lifshits - drums

Описание: Первый клип группы Tesla Boy на песню Electric Lady.
Tesla Boy — российская электропоп-группа.
Группа Tesla Boy — это фронтмен Антон Севидов, басист Дима Мидборн и барабанщик Боря Лифшиц — звучат они неотличимо от всего того, что производится, скажем, на французском лейбле Valerie или австралийском Modular. И это, пожалуй, один из немногих случаев, когда отечественную группу можно слушать без скидок на российское производство.
Tesla Boy — проект Антона Севидова. Севидов — внук советского футболиста, в юности выгравший несколько международных музыкальных конкурсов. Cоздал группу Неонавт, которую распустил в начале 2007-го. Также работал с Би-2 и в Нечётном воине. В конце 2008-го совместно с басистом Banana Princess Дмитрием Мидборном и ударником Би-2 Борисом Лифшицем организовал новую группу Tesla Boy. Музыка группы стилизована под электропоп 80-х. Критики также видят особое сходство с автралийцами Cut Copy (англ). Композиции группы исполняются на английском, что способствует росту популярности группы за границей. Летом 2009-го трек Fire попал в ротацию радио MAXIMUM.

Качество: WebRip
Формат: AVI
Видео кодек: XviD
Аудио кодек: MP3
Видео: 1 113 KbpsЮ 480*272 pixels, 16:9, 25.000 fps
Аудио: 128 Kbps, 2 channels, 44.1 KHz
General
Complete name : E:\Music\NEW WAVE\Tesla Boy\Tesla Boy - Electric Lady (2009).avi
Format : AVI
Format/Info : Audio Video Interleave
File size : 30.4 MiB
Duration : 3mn 23s
Overall bit rate : 1 254 Kbps
Writing application : MEncoder SVN-r22963
Writing library : MPlayer

Video
ID : 0
Format : MPEG-4 Visual
Format profile : Simple@L1
Format settings, BVOP : No
Format settings, QPel : No
Format settings, GMC : No warppoints
Format settings, Matrix : Default (H.263)
Codec ID : XVID
Codec ID/Hint : XviD
Duration : 3mn 23s
Bit rate : 1 113 Kbps
Width : 480 pixels
Height : 272 pixels
Display aspect ratio : 16:9
Frame rate : 25.000 fps
Resolution : 24 bits
Colorimetry : 4:2:0
Scan type : Progressive
Bits/(Pixel*Frame) : 0.341
Stream size : 27.0 MiB (89%)
Writing library : Lavc51.40.2

Audio
ID : 1
Format : MPEG Audio
Format version : Version 1
Format profile : Layer 3
Codec ID : 55
Codec ID/Hint : MP3
Duration : 3mn 23s
Bit rate mode : Constant
Bit rate : 128 Kbps
Channel(s) : 2 channels
Sampling rate : 44.1 KHz
Resolution : 16 bits
Stream size : 3.10 MiB (10%)
Alignment : Aligned on interleaves
Interleave, duration : 26 ms (0.65 video frame)
Interleave, preload duration : 522 ms


Трекер:  [ 23-Ноя-2011 13:58 ]

  

Скачать .torrent

Размер .torrent файла 10 KB


Размер: 30 MB
Хэш (hash) релиза: df0ac8a5c6552ca251323ee9f78100f697d23337

Еще никто не оставлял запись к записи скачать торрент Tesla Boy - Electric Lady . Будь первым!

!Обратная связь