Скачать через торрент музыку Defqon.1 No Time to Waste бесплатно без регистрации torrent

Если у вас наблюдаются проблемы со скриншотами, переходом по ссылками, скачиванием торрентов - проблемы в блокировщике рекламы AdBlock. #хорошегоДня!


Статистика раздачи
Размер:  754 MB   |    Зарегистрирован:  5 лет 10 месяцев   |    .torrent скачан:  25 раз   |   
Раздают:  1  
   
Загрузка...
 
Автор Сообщение

Galfimbul

avatar Galfimbul



Defqon.1 Festival


Жанр: Hardstyle, Hardcore
Продолжительность: 01:48:11
Год выпуска: 2010
Описание:
Defqon.1 - ежегодный Q-dance event, проходящий в местечке Almere Strand под Амстердамом на берегу залива: пиво, красивые девушки и парни, а также прекрасная музыка, которая заставляет танцевать всех, кто находится в этом прекрасном месте.
Фестиваль, посвященный таким hard dance стилям, как Hardstyle, Techno, Hardcore, Hardtrance, Jumpstyle, Oldskool, French Tek, получает все большее признание на пляже Альмеры. Это событие происходит в каждую последнюю пятницу июня ежегодно. Позвольте Q-dance расширить ваше сознание с помощью лучшего шоу в мире.
Качество: BDRip
Контейнер: AVI
Видео кодек: XviD
Аудио кодек: MP3
Видео: Xvid 640x360 837Kbps 25.00fps
Аудио: MPEG Audio Layer 3 128kbps 48000Hz stereo


Код:

Video
ID                               : 0
Format                           : MPEG-4 Visual
Format profile                   : Advanced Simple@L5
Format settings, BVOP            : Yes
Format settings, QPel            : No
Format settings, GMC             : No warppoints
Format settings, Matrix          : Custom
Codec ID                         : XVID
Codec ID/Hint                    : XviD
Duration                         : 1h 48mn
Bit rate                         : 837 Kbps
Width                            : 640 pixels
Height                           : 360 pixels
Display aspect ratio             : 16:9
Frame rate                       : 25.000 fps
Color space                      : YUV
Chroma subsampling               : 4:2:0
Bit depth                        : 8 bits
Scan type                        : Progressive
Bits/(Pixel*Frame)               : 0.145
Stream size                      : 647 MiB (86%)
Writing library                  : XviD 1.2.1 (UTC 2008-12-04)

Audio
ID                               : 1
Format                           : MPEG Audio
Format version                   : Version 1
Format profile                   : Layer 3
Codec ID                         : 55
Codec ID/Hint                    : MP3
Duration                         : 1h 48mn
Bit rate mode                    : Constant
Bit rate                         : 128 Kbps
Channel(s)                       : 2 channels
Sampling rate                    : 48.0 KHz
Stream size                      : 99.1 MiB (13%)
Alignment                        : Aligned on interleaves
Interleave, duration             : 40 ms (1.00 video frame)
Interleave, preload duration     : 504 ms
Writing library                  : LAME3.98r
Encoding settings                : -m s -V 4 -q 2 -lowpass 17 -b 128


Трекер:  [ 23-Ноя-2011 14:06 ]

  

Скачать .torrent

Размер .torrent файла 15 KB


Размер: 754 MB
Хэш (hash) релиза: 32696019a2327e71eeb7b62923d570d21581bab8

Торренты, похожие на Defqon.1 No Time to Waste скачать торрент

Форум Название Автор Размер S L Добавлен
Электронная музыка (video) ·· Defqon.1 No Time to Waste [2010, HardStyle/HardCore, Blu-ray] AqvaGen 2350445906421.89 GB 0 0 1294848529

19:08

12-Янв-11

Электронная музыка (video) ·· Defqon.1 No Time to Waste [2010, Hardstyle, Hardcore, BDRip] AqvaGen 46425386284.32 GB 0 0 1294848513

19:08

12-Янв-11

Еще никто не оставлял запись к записи скачать торрент Defqon.1 No Time to Waste . Будь первым!

!Обратная связь