Скачать через торрент музыку Dj Aligator - Im Coming Home бесплатно без регистрации torrent

Если у вас наблюдаются проблемы со скриншотами, переходом по ссылками, скачиванием торрентов - проблемы в блокировщике рекламы AdBlock. #хорошегоДня!


Статистика раздачи
Размер:  19 MB   |    Зарегистрирован:  5 лет 11 месяцев   |    .torrent скачан:  47 раз   |   
Раздают:  1  
   
Загрузка...
 
Автор Сообщение

uzi2009

avatar uzi2009


Dj Aligator - Im Coming Home ( Official Video)

Год выпуска: 2008
Жанр: Trance
Продолжительность: 00:04:12

Качество: WebRip
Формат: MP4
Видео кодек: AVC
Аудио кодек: AAC
Видео: AVC 480x270 25.000fps 502Kbps
Аудио: AAC 44.1KHz stereo 126Kbps
General
Complete name : F:\Видео\Клипы\Dj Aligator\Dj Aligator - Im Coming Home ( Official Video).mp4
Format : MPEG-4
Format profile : Base Media / Version 2
Codec ID : mp42
File size : 19.0 MiB
Duration : 4mn 12s
Overall bit rate : 630 Kbps
Encoded date : UTC 2008-06-15 15:57:38
Tagged date : UTC 2008-06-15 15:57:38
gsst : 0
gstd : 252748
gssd : BADC20643HH
gshh : v11.lscache3.c.youtube.com

Video
ID : 2
Format : AVC
Format/Info : Advanced Video Codec
Format profile : Baseline@L2.1
Format settings, CABAC : No
Format settings, ReFrames : 1 frame
Codec ID : avc1
Codec ID/Info : Advanced Video Coding
Duration : 4mn 12s
Bit rate mode : Variable
Bit rate : 502 Kbps
Maximum bit rate : 2 510 Kbps
Width : 480 pixels
Height : 270 pixels
Display aspect ratio : 16:9
Frame rate mode : Constant
Frame rate : 25.000 fps
Resolution : 24 bits
Colorimetry : 4:2:0
Scan type : Progressive
Bits/(Pixel*Frame) : 0.155
Stream size : 15.1 MiB (80%)
Title : (C) 2007 Google Inc. v06.24.2007.
Encoded date : UTC 2008-06-15 15:57:38
Tagged date : UTC 2008-06-15 15:57:39

Audio
ID : 1
Format : AAC
Format/Info : Advanced Audio Codec
Format version : Version 4
Format profile : LC
Format settings, SBR : No
Codec ID : 40
Duration : 4mn 12s
Bit rate mode : Variable
Bit rate : 126 Kbps
Maximum bit rate : 168 Kbps
Channel(s) : 2 channels
Channel positions : L R
Sampling rate : 44.1 KHz
Resolution : 16 bits
Stream size : 3.80 MiB (20%)
Title : (C) 2007 Google Inc. v06.24.2007.
Encoded date : UTC 2008-06-15 15:57:38
Tagged date : UTC 2008-06-15 15:57:39


Трекер:  [ 03-Ноя-2011 15:32 ]

  

Скачать .torrent

Размер .torrent файла 6 KB


Размер: 19 MB
Хэш (hash) релиза: f729b9c4508d15a6b1c432a0c6f74c2f917b3577

bot

Топик был перенесен в форум Электронная музыка (video)

Перенес uzi2009

Хотите добавить комментарий к записи скачать торрент Dj Aligator - Im Coming Home

!Обратная связь