Скачать через торрент музыку Джо против вулкана Joe Versus the Volcano бесплатно без регистрации torrent

Если у вас наблюдаются проблемы со скриншотами, переходом по ссылками, скачиванием торрентов - проблемы в блокировщике рекламы AdBlock. #хорошегоДня!


 
Автор Сообщение

bot

avatar bot



Джо против вулкана / Joe Versus the Volcano
Composed and Conducted by Georges Delerue
Limited Edition of 3000 Units

Жанр: Score | Дата выпуска: май 2002
Издатель (лейбл): Varèse Sarabande | Номер по каталогу: SRS 2014
Аудиокодек: FLAC | Тип рипа: image+.cue | Битрейт аудио: lossless
Общая продолжительность: 48:20
Источник: Рип оригинального диска из личной коллекции
01. Once Upon a Time... (0:20)
02. Brain Cloud (3:04)
03. Dinner With Dee Dee (2:03)
04. Love Theme (1:12)
05. Joe Alone (0:26)
06. Graynamore's Pitch (1:53)
07. I'll Do It (1:18)
08. New York (0:28)
09. Shopping Spree (2:14)
10. Alone in New York (1:30)
11. To the Hotel (0:48)
12. To the Ship (2:41)
13. History of the Waponis (0:38)
14. Pat Tells Joe (2:26)
15. Fishing (3:25)
16. The Storm and The Rescue (9:10)
17. Hava Nagila and When Johnny Comes Marching Home (1:32)
18. I've Got to Go (3:28)
19. Explosion and In the Water (2:03)
20. They Sail Away (1:08)
21. End Credits (6:14)
Exact Audio Copy V1.0 beta 3 from 29. August 2011

EAC extraction logfile from 31. August 2013, 17:17

Georges Delerue / Joe Versus The Volcano

Used drive : TSSTcorpCDDVDW SN-S082N Adapter: 3 ID: 0

Read mode : SecureUtilize accurate stream : YesDefeat audio cache : YesMake use of C2 pointers : No

Read offset correction : 6Overread into Lead-In and Lead-Out : NoFill up missing offset samples with silence : YesDelete leading and trailing silent blocks : NoNull samples used in CRC calculations : YesUsed interface : Native Win32 interface for Win NT & 2000

Used output format : Internal WAV RoutinesSample format : 44.100 Hz; 16 Bit; Stereo

TOC of the extracted CD

Track | Start | Length | Start sector | End sector --------------------------------------------------------- 1 | 0:00.00 | 0:21.15 | 0 | 1589 2 | 0:21.15 | 3:05.02 | 1590 | 15466 3 | 3:26.17 | 2:03.53 | 15467 | 24744 4 | 5:29.70 | 1:11.70 | 24745 | 30139 5 | 6:41.65 | 0:26.12 | 30140 | 32101 6 | 7:08.02 | 1:53.08 | 32102 | 40584 7 | 9:01.10 | 1:19.05 | 40585 | 46514 8 | 10:20.15 | 0:27.62 | 46515 | 48601 9 | 10:48.02 | 2:16.00 | 48602 | 58801 10 | 13:04.02 | 1:31.33 | 58802 | 65659 11 | 14:35.35 | 0:49.10 | 65660 | 69344 12 | 15:24.45 | 2:42.47 | 69345 | 81541 13 | 18:07.17 | 0:39.38 | 81542 | 84504 14 | 18:46.55 | 2:27.72 | 84505 | 95601 15 | 21:14.52 | 3:26.25 | 95602 | 111076 16 | 24:41.02 | 9:09.28 | 111077 | 152279 17 | 33:50.30 | 1:34.50 | 152280 | 159379 18 | 35:25.05 | 3:29.20 | 159380 | 175074 19 | 38:54.25 | 2:04.27 | 175075 | 184401 20 | 40:58.52 | 1:06.70 | 184402 | 189421 21 | 42:05.47 | 6:14.03 | 189422 | 217474

Range status and errors

Selected range

Filename D:\Georges Delerue - Joe Versus The Volcano (SRS 2014).wav

Peak level 98.8 % Extraction speed 1.1 X Range quality 99.9 % Test CRC A0240F01 Copy CRC A0240F01 Copy OK

No errors occurred

AccurateRip summary

Track 1 accurately ripped (confidence 2) [736C03A0] (AR v2)Track 2 accurately ripped (confidence 2) [1140FFFE] (AR v2)Track 3 accurately ripped (confidence 2) [C2B5CB66] (AR v2)Track 4 accurately ripped (confidence 2) [9B0EAF97] (AR v2)Track 5 accurately ripped (confidence 2) [1121F8C2] (AR v2)Track 6 accurately ripped (confidence 2) [EB572F9F] (AR v2)Track 7 accurately ripped (confidence 2) [28B6DD08] (AR v2)Track 8 accurately ripped (confidence 2) [F1294DA6] (AR v2)Track 9 accurately ripped (confidence 2) [BA67B6FF] (AR v2)Track 10 accurately ripped (confidence 2) [1AE0598A] (AR v2)Track 11 accurately ripped (confidence 2) [0234931B] (AR v2)Track 12 accurately ripped (confidence 2) [1613720A] (AR v2)Track 13 accurately ripped (confidence 2) [40A08E4C] (AR v2)Track 14 accurately ripped (confidence 2) [8D28C135] (AR v2)Track 15 accurately ripped (confidence 2) [0AF32453] (AR v2)Track 16 accurately ripped (confidence 2) [10EA362C] (AR v2)Track 17 accurately ripped (confidence 2) [F36057A4] (AR v2)Track 18 accurately ripped (confidence 2) [14ED2FD8] (AR v2)Track 19 accurately ripped (confidence 2) [C5F1314C] (AR v2)Track 20 accurately ripped (confidence 2) [E8FA1D86] (AR v2)Track 21 accurately ripped (confidence 2) [14CC9B5B] (AR v2)

All tracks accurately ripped

End of status report

---- CUETools DB Plugin V2.1.4

[CTDB TOCID: HjYqrWoMH3V4fqQd7eo4FXuTESk-] foundSubmit result: HjYqrWoMH3V4fqQd7eo4FXuTESk- has been confirmedTrack | CTDB Status 1 | (3/3) Accurately ripped 2 | (3/3) Accurately ripped 3 | (3/3) Accurately ripped 4 | (3/3) Accurately ripped 5 | (3/3) Accurately ripped 6 | (3/3) Accurately ripped 7 | (3/3) Accurately ripped 8 | (3/3) Accurately ripped 9 | (3/3) Accurately ripped 10 | (3/3) Accurately ripped 11 | (3/3) Accurately ripped 12 | (3/3) Accurately ripped 13 | (3/3) Accurately ripped 14 | (3/3) Accurately ripped 15 | (3/3) Accurately ripped 16 | (3/3) Accurately ripped 17 | (3/3) Accurately ripped 18 | (3/3) Accurately ripped 19 | (3/3) Accurately ripped 20 | (3/3) Accurately ripped 21 | (3/3) Accurately ripped

==== Log checksum 4645F21BBEC11D39BE7CB03E21C97656FA1C8C411CAF10D73569270F23132140 ====
REM GENRE SoundtrackREM DATE 1990REM DISCID FE0B5315REM COMMENT ExactAudioCopy v1.0b3PERFORMER "Georges Delerue"TITLE "Joe Versus The Volcano"FILE "Georges Delerue - Joe Versus The Volcano (SRS 2014).wav" WAVE TRACK 01 AUDIO TITLE "Once Upon A Time..." INDEX 01 00:00:00 TRACK 02 AUDIO TITLE "Brain Cloud" INDEX 01 00:21:15 TRACK 03 AUDIO TITLE "Dinner With Dee Dee" INDEX 01 03:26:17 TRACK 04 AUDIO TITLE "Love Theme" INDEX 01 05:29:70 TRACK 05 AUDIO TITLE "Joe Alone" INDEX 01 06:41:65 TRACK 06 AUDIO TITLE "Graynamore's Pitch" INDEX 01 07:08:02 TRACK 07 AUDIO TITLE "I'll Do It" INDEX 01 09:01:10 TRACK 08 AUDIO TITLE "New York" INDEX 01 10:20:15 TRACK 09 AUDIO TITLE "Shopping Spree" INDEX 01 10:48:02 TRACK 10 AUDIO TITLE "Alone in New York" INDEX 00 13:01:72 INDEX 01 13:04:02 TRACK 11 AUDIO TITLE "To The Hotel" INDEX 00 14:34:17 INDEX 01 14:35:35 TRACK 12 AUDIO TITLE "To The Ship" INDEX 01 15:24:45 TRACK 13 AUDIO TITLE "History Of The Waponis" INDEX 00 18:05:50 INDEX 01 18:07:17 TRACK 14 AUDIO TITLE "Pat Tells Joe" INDEX 01 18:46:55 TRACK 15 AUDIO TITLE "Fishing" INDEX 00 21:13:05 INDEX 01 21:14:52 TRACK 16 AUDIO TITLE "The Storm and The Resque" INDEX 00 24:39:72 INDEX 01 24:41:02 TRACK 17 AUDIO TITLE "Hava Nagila and When Johnny Comes Marching Home" INDEX 01 33:50:30 TRACK 18 AUDIO TITLE "I've Got to Go" INDEX 00 35:22:37 INDEX 01 35:25:05 TRACK 19 AUDIO TITLE "Explosion and In The Water" INDEX 01 38:54:25 TRACK 20 AUDIO TITLE "They Sail Away" INDEX 01 40:58:52 TRACK 21 AUDIO TITLE "End Credits" INDEX 01 42:05:47

Еще никто не оставлял запись к записи скачать торрент Джо против вулкана Joe Versus the Volcano . Будь первым!

!Обратная связь