Скачать порно через торрент Zoku Gosenzo San`e Masquerade 2 UnionPeer.org бесплатно онлайн HD качество

Скачать новое порно 2015, 2014 новинки через торрент UnionPeer.org

Порно торрент бесплатно ЮнионПир.орг

Если у вас наблюдаются проблемы со скриншотами, переходом по ссылками, скачиванием торрентов - проблемы в блокировщике рекламы AdBlock. #хорошегоДня!


Статистика раздачи
Размер:  7.31 GB   |    Зарегистрирован:  3 года 11 месяцев   |    .torrent скачан:  82 раза   |   
Раздают:  1  
   
Загрузка...
 
Автор Сообщение

LinGr

avatar LinGr



Zoku Gosenzo San`e / Masquerade 2 / Zoku Gosenzo / 続・御先祖賛江
Маскарад 2

Год производства: 2000 г.
Жанр: Oral sex, Mystic, School, Rape, Yuri, Vampires, Romance, Masturbation
Серии: ep. 1-4 of 4
Продолжительность: 4х~27 min
Цензура: Есть

Озвучка: Оригинальная (Японский)

Режиссер: Masaki Shin`ichi
Автор оригинала: Kajishima Masaki
Студия: AIC, Green Bunny

Описание RUS: Спустя один год, как юнный Ген Хирага уехал в Америку на обследование и лечение, он снова возвращаеться в родной дом. Казалось бы началась его нормальная и тихая жизнь, но не все так просто. В мирном городке стали происходить случаи нападения на студенток школы. На шее у жервт находили две метки с укусами - явный признак нападения вампира. Чтобы выяснить кому принадлежат все эти нападения Дженнифер устроилась работать под прикрытием учительницы английского языка, расследуя эти загадочные проишествия. Сумеют ли наши герои узнать всю правду о загадочном вампире осталвяющим свои следы на шее у жертв покажет время.
Diego3000

Описание ENG: So Gen is back from America and everyone is happy to see him. All of the girls missed him a lot, especially his male organ. But it's to bad his condition has not improved even with all the drugs he took. He wasn't able to cure his illness and to make it worse, a lot of weird stuff started to occur in the school. People are fainting from loss of blood. Oh noes, vampires have appeared. Now it's up to Gen and his friend to solve this mystery.

Информационные ссылки: AniDB - MAL - World Art - ХентайМаг

Качество видео: 4x DVD5
Формат видео: DVD Video
Видео кодек: MPEG2
Аудио кодек: AC3
Видео: 720х480, (4:3), 29,970 кадров/сек, ~ 8700 Кбит/сек, NTSC
Аудио: JAP, AC-3, 2 канала, 192 Кбит/сек (первый эпизод), 384 Кбит/сек (2-4 эпизоды), 48,0 КГц
Общее
Полное имя : J:\VIDEO_TS\VTS_01_1.VOB
Формат : MPEG-PS
Размер файла : 1024 Мбайт
Продолжительность : 15 м.
Общий поток : 9309 Кбит/сек

Видео
Идентификатор : 224 (0xE0)
Формат : MPEG Video
Версия формата : Version 2
Профиль формата : Main@Main
Параметр BVOP формата : Нет
Параметр матрицы формата : Выборочная
Параметр GOP формата : Variable
Продолжительность : 15 м.
Битрейт : 8740 Кбит/сек
Максимальный битрейт : 8000 Кбит/сек
Ширина : 720 пикселей
Высота : 480 пикселей
Соотношение сторон : 4:3
Частота кадров : 29,970 кадров/сек
Стандарт вещания : NTSC
Цветовое пространство : YUV
Субдискретизация насыщенности : 4:2:0
Битовая глубина : 8 бит
Тип развёртки : Прогрессивная
Порядок развёртки : Верхнее поле первое
Метод сжатия : С потерями
Бит/(Пиксели*Кадры) : 0.844
Размер потока : 961 Мбайт (94%)
Основные цвета : BT.601 NTSC
Характеристики трансфера : BT.601
Коэффициенты матрицы : BT.601

Аудио
Идентификатор : 189 (0xBD)-128 (0x80)
Формат : AC-3
Формат/Информация : Audio Coding 3
Расширение режима : CM (complete main)
Параметр Endianness формата : Big
Режим смешивания : DVD-Video
Продолжительность : 15 м.
Вид битрейта : Постоянный
Битрейт : 384 Кбит/сек
Каналы : 2 канала
Расположение каналов : Front: L R
Частота : 48,0 КГц
Битовая глубина : 16 бит
Метод сжатия : С потерями
Размер потока : 42,2 Мбайт (4%)

Текст
Идентификатор : 189 (0xBD)-32 (0x20)
Формат : RLE
Формат/Информация : Run-length encoding
Режим смешивания : DVD-Video

Меню
1. Spring Dawn
2. Furnace
3. Possessed
4. Remnants of a Dream



Трекер:  [ 01-Сен-2013 07:33 ]

  

Скачать .torrent

Размер .torrent файла 19 KB


Размер: 7.31 GB
Хэш (hash) релиза: 34585e43b861affe37a4c8ba700dfffc7d15d01b

Торренты, похожие на Zoku Gosenzo San`e Masquerade 2 скачать торрент

Форум Название Автор Размер S L Добавлен
Хентай, порно и эротические мультфильмы ·· Masquerade 2 / Zoku Gosenzo San'e / Маскарад 2 (Masaki Shinichi, AIC / Green Bunny) (ep.1-4 of 4) [uncen] [2000, Drama, Romance, Vampires, Horror, Incest, Yuri, Detective, DVDRip] [jap/eng/rus] Galfimbul 821139721783 MB 0 0 1478163724

12:02

3-Ноя-16

bot

Топик был перенесен в форум Хентай | С цензурой

Перенес LinGr

Хотите добавить комментарий к записи скачать торрент Zoku Gosenzo San`e Masquerade 2

!Обратная связь