Скачать через торрент музыку Mohamed Ali - Rocket бесплатно без регистрации torrent

Если у вас наблюдаются проблемы со скриншотами, переходом по ссылками, скачиванием торрентов - проблемы в блокировщике рекламы AdBlock. #хорошегоДня!


Статистика раздачи
Размер:  69 MB   |    Зарегистрирован:  5 лет 10 месяцев   |    .torrent скачан:  29 раз   |   
Раздают:  1  
   
Загрузка...
 
Автор Сообщение

Galfimbul

avatar Galfimbul


Mohamed Ali - Rocket (Who The Fuck Is DJ Aligator Remix)

Год выпуска: 2009
Жанр: Trance
Продолжительность: 00:04:31

Описание: Ещё один Суперский клип DJ Aligator

Качество: WebRip HD
Формат: MP4
Видео кодек: AVC
Аудио кодек: AAC
Видео: AVC 1280x720 25.000fps 2000Kbps
Аудио: AAC 44.1KHz stereo 140Kbps
General
Complete name : F:\Видео\Клипы\Dj Aligator\Mohamed Ali - Rocket ( Who The Fuck Is DJ Aligator Remix ).mp4
Format : MPEG-4
Format profile : Base Media / Version 2
Codec ID : mp42
File size : 69.2 MiB
Duration : 4mn 31s
Overall bit rate : 2 143 Kbps
Encoded date : UTC 2009-11-08 10:01:36
Tagged date : UTC 2009-11-08 10:01:36
gsst : 0
gstd : 271556
gssd : BADC20602HH
gshh : v10.lscache2.c.youtube.com

Video
ID : 2
Format : AVC
Format/Info : Advanced Video Codec
Format profile : High@L3.1
Format settings, CABAC : Yes
Format settings, ReFrames : 3 frames
Codec ID : avc1
Codec ID/Info : Advanced Video Coding
Duration : 4mn 31s
Bit rate mode : Variable
Bit rate : 2 000 Kbps
Maximum bit rate : 3 379 Kbps
Width : 1 280 pixels
Height : 720 pixels
Display aspect ratio : 16:9
Frame rate mode : Constant
Frame rate : 25.000 fps
Resolution : 24 bits
Colorimetry : 4:2:0
Scan type : Progressive
Bits/(Pixel*Frame) : 0.087
Stream size : 64.6 MiB (93%)
Title : (C) 2007 Google Inc. v08.13.2007.
Encoded date : UTC 2009-11-08 10:01:36
Tagged date : UTC 2009-11-08 10:01:37

Audio
ID : 1
Format : AAC
Format/Info : Advanced Audio Codec
Format version : Version 4
Format profile : LC
Format settings, SBR : No
Codec ID : 40
Duration : 4mn 31s
Bit rate mode : Variable
Bit rate : 140 Kbps
Maximum bit rate : 163 Kbps
Channel(s) : 2 channels
Channel positions : L R
Sampling rate : 44.1 KHz
Resolution : 16 bits
Stream size : 4.53 MiB (7%)
Title : (C) 2007 Google Inc. v08.13.2007.
Encoded date : UTC 2009-11-08 10:01:36
Tagged date : UTC 2009-11-08 10:01:37


Трекер:  [ 23-Ноя-2011 14:19 ]

  

Скачать .torrent

Размер .torrent файла 11 KB


Размер: 69 MB
Хэш (hash) релиза: 8c98de2b78864cb1db7f0e0f8c768353caf1214e

Еще никто не оставлял запись к записи скачать торрент Mohamed Ali - Rocket . Будь первым!

!Обратная связь