Скачать через торрент музыку Тайны исповеди True Confessions бесплатно без регистрации torrent

Если у вас наблюдаются проблемы со скриншотами, переходом по ссылками, скачиванием торрентов - проблемы в блокировщике рекламы AdBlock. #хорошегоДня!


Статистика раздачи
Размер:  362 MB   |    Зарегистрирован:  3 года 11 месяцев   |    .torrent скачан:  26 раз   |   
Раздают:  1  
   
Загрузка...
 
Автор Сообщение

Polarnik

avatar Polarnik



Тайна исповеди / True Confessions
Composed and Conducted by Georges Delerue
Limited Edition of 1000 Units

Жанр: Score | Дата выпуска: 31 августа 2005
Издатель (лейбл): Varèse Sarabande | Номер по каталогу: VCL 0805 1040
Аудиокодек: FLAC | Тип рипа: image+.cue | Битрейт аудио: lossless
Общая продолжительность: 31:41
01. End Credits
02. The Notebook
03. Carrick Fergus
04. The Barracks
05. After The Fight - Rancho Rosa
06. The Barracks (Alternate)
07. Carrick Fergus II
08. Troubled Des
09. Forget It
10. Brenda''s Goodbye
Exact Audio Copy V1.0 beta 3 from 29. August 2011

EAC extraction logfile from 30. August 2013, 23:23

Georges Delerue / True Confessions

Used drive : TSSTcorpCDDVDW TS-L633C Adapter: 2 ID: 0

Read mode : SecureUtilize accurate stream : YesDefeat audio cache : YesMake use of C2 pointers : No

Read offset correction : 6Overread into Lead-In and Lead-Out : NoFill up missing offset samples with silence : YesDelete leading and trailing silent blocks : NoNull samples used in CRC calculations : YesUsed interface : Native Win32 interface for Win NT & 2000

Used output format : Internal WAV RoutinesSample format : 44.100 Hz; 16 Bit; Stereo

TOC of the extracted CD

Track | Start | Length | Start sector | End sector --------------------------------------------------------- 1 | 0:00.00 | 3:55.74 | 0 | 17698 2 | 3:55.74 | 3:10.60 | 17699 | 32008 3 | 7:06.59 | 2:10.24 | 32009 | 41782 4 | 9:17.08 | 3:15.08 | 41783 | 56415 5 | 12:32.16 | 2:07.24 | 56416 | 65964 6 | 14:39.40 | 3:21.10 | 65965 | 81049 7 | 18:00.50 | 2:42.45 | 81050 | 93244 8 | 20:43.20 | 5:05.44 | 93245 | 116163 9 | 25:48.64 | 2:25.37 | 116164 | 127075 10 | 28:14.26 | 3:31.18 | 127076 | 142918

Range status and errors

Selected range

Filename D:\Georges Delerue - True Confessions (VCL 0805 1040).wav

Peak level 87.0 % Extraction speed 3.2 X Range quality 100.0 % Test CRC 84CAAFEE Copy CRC 84CAAFEE Copy OK

No errors occurred

AccurateRip summary

Track 1 accurately ripped (confidence 3) [FFE46E23] (AR v2)Track 2 accurately ripped (confidence 3) [77859669] (AR v2)Track 3 accurately ripped (confidence 3) [A66444B6] (AR v2)Track 4 accurately ripped (confidence 3) [DCBB0FDC] (AR v2)Track 5 accurately ripped (confidence 3) [D555BCAA] (AR v2)Track 6 accurately ripped (confidence 3) [CD94D65B] (AR v2)Track 7 accurately ripped (confidence 3) [CFDB3BEC] (AR v2)Track 8 accurately ripped (confidence 3) [F1A3AF90] (AR v2)Track 9 accurately ripped (confidence 3) [FACF9FC0] (AR v2)Track 10 accurately ripped (confidence 3) [500BF0D9] (AR v2)

All tracks accurately ripped

End of status report

---- CUETools DB Plugin V2.1.4

[CTDB TOCID: c3C.uOq1SSbg4lCg7HHMMbZAfyY-] foundSubmit result: c3C.uOq1SSbg4lCg7HHMMbZAfyY- has been confirmedTrack | CTDB Status 1 | (2/2) Accurately ripped 2 | (2/2) Accurately ripped 3 | (2/2) Accurately ripped 4 | (2/2) Accurately ripped 5 | (2/2) Accurately ripped 6 | (2/2) Accurately ripped 7 | (2/2) Accurately ripped 8 | (2/2) Accurately ripped 9 | (2/2) Accurately ripped 10 | (2/2) Accurately ripped

==== Log checksum 4BB1F2AB3B555973809A534373C09A828F7AB14D88E670D7DA40AE583BCD0801 ====
REM GENRE SoundtrackREM DATE 1981REM DISCID 8807710AREM COMMENT "ExactAudioCopy v1.0b3"PERFORMER "Georges Delerue"TITLE "True Confessions"FILE "Georges Delerue - True Confessions (VCL 0805 1040).цфм" WAVE TRACK 01 AUDIO TITLE "End Credits" PERFORMER "Georges Delerue" INDEX 01 00:00:00 TRACK 02 AUDIO TITLE "The Notebook" PERFORMER "Georges Delerue" INDEX 00 03:53:31 INDEX 01 03:55:74 TRACK 03 AUDIO TITLE "Carrick Fergus" PERFORMER "Georges Delerue" INDEX 00 07:05:34 INDEX 01 07:06:59 TRACK 04 AUDIO TITLE "The Barracks" PERFORMER "Georges Delerue" INDEX 01 09:17:08 TRACK 05 AUDIO TITLE "After The Fight - Rancho Rosa" PERFORMER "Georges Delerue" INDEX 00 12:29:73 INDEX 01 12:32:16 TRACK 06 AUDIO TITLE "The Barracks (Alternate)" PERFORMER "Georges Delerue" INDEX 00 14:36:46 INDEX 01 14:39:40 TRACK 07 AUDIO TITLE "Carrick Fergus II" PERFORMER "Georges Delerue" INDEX 00 17:58:72 INDEX 01 18:00:50 TRACK 08 AUDIO TITLE "Troubled Des" PERFORMER "Georges Delerue" INDEX 00 20:41:41 INDEX 01 20:43:20 TRACK 09 AUDIO TITLE "Forget It" PERFORMER "Georges Delerue" INDEX 00 25:47:20 INDEX 01 25:48:64 TRACK 10 AUDIO TITLE "Brenda''s Goodbye" PERFORMER "Georges Delerue" INDEX 00 28:11:40 INDEX 01 28:14:26


Трекер:  [ 25-Сен-2013 08:30 ]

  

Скачать .torrent

Размер .torrent файла 15 KB


Размер: 362 MB
Хэш (hash) релиза: d1ca8bb5630e4f53c624d9e167f8ad1f792025ed

Торренты, похожие на Тайны исповеди True Confessions скачать торрент

Форум Название Автор Размер S L Добавлен
Саундтреки к фильмам и мультфильмам (mp3) ·· (Score) Тайны исповеди / True Confessions (by Georges Delerue) - 2005 (1981), MP3, 320 kbps Galfimbul 7701038273 MB 0 0 1464372462

21:07

27-Май-16

Еще никто не оставлял запись к записи скачать торрент Тайны исповеди True Confessions . Будь первым!

!Обратная связь