Скачать через торрент музыку Aphex Twin - Come To Daddy бесплатно без регистрации torrent

Если у вас наблюдаются проблемы со скриншотами, переходом по ссылками, скачиванием торрентов - проблемы в блокировщике рекламы AdBlock. #хорошегоДня!


Статистика раздачи
Размер:  277 MB   |    Зарегистрирован:  5 лет 10 месяцев   |    .torrent скачан:  27 раз   |   
Раздают:  1  
   
Загрузка...
 
Автор Сообщение

Galfimbul

avatar Galfimbul


Aphex Twin - Come To Daddy
Жанр: DubStep
Продолжительность: 5mn 50s 0ms
Год выпуска: 1997
Описание: Aphex Twin - Come To Daddy (ABC Rage HDTVRip) 1997
Источник: собственный рип
{Rage HD} Aphex Twin - Come To Daddy.mpg
Format : MPEG-PS
File size : 425 MiB
Duration : 5mn 50s
Overall bit rate : 10.2 Mbps

Video
ID : 224 (0xE0)
Format : MPEG Video
Format_Commercial_IfAny : HDV 720p
Format version : Version 2
Format profile : Main@High
Format settings, BVOP : Yes
Format settings, Matrix : Default
Duration : 5mn 50s
Bit rate mode : Variable
Bit rate : 9 600 Kbps
Width : 1 280 pixels
Height : 720 pixels
Display aspect ratio : 16:9
Frame rate : 50.000 fps
Standard : Component
Color space : YUV
Chroma subsampling : 4:2:0
Bit depth : 8 bits
Scan type : Progressive
Compression mode : Lossy
Bits/(Pixel*Frame) : 0.208
Stream size : 398 MiB (94%)

Audio
ID : 128 (0x80)
Format : AC-3
Format/Info : Audio Coding 3
Mode extension : CM (complete main)
Duration : 5mn 50s
Bit rate mode : Constant
Bit rate : 448 Kbps
Channel(s) : 2 channels
Channel positions : Front: L R
Sampling rate : 48.0 KHz
Bit depth : 16 bits
Compression mode : Lossy
Stream size : 18.7 MiB (4%)
Звук же 448 Kbps на нем как с худой бочки, причем с очень слабым уровнем, слушать практически невозможно. Качество звука более чем отвратительное:
Качество: SATRip (MVID) (HDTV_720р)
Контейнер: MPG
Видео кодек: MPEG2
Аудио кодек: LPCM
Видео: MPEG Video at 4 959 Kbps 720 x 576 (1.778) at 25.000 fps
Аудио: LPCM at 1 536 Kbps 2 channels, 48.0 KHz
Замененная новая и качественная звуковая дорожка:


Трекер:  [ 23-Ноя-2011 14:24 ]

  

Скачать .torrent

Размер .torrent файла 11 KB


Размер: 277 MB
Хэш (hash) релиза: 3738903998e335f2b308a5dcfabdf52288a177e5

Торренты, похожие на Aphex Twin - Come To Daddy скачать торрент

Форум Название Автор Размер S L Добавлен
Электронная музыка (video) ·· Aphex Twin - Come To Daddy - [1997 г., IDM, DVDRip] Galfimbul 183046144175 MB 0 0 1294845660

18:21

12-Янв-11

Электронная музыка (video) ·· Aphex Twin (Richard David James) - Come To Daddy [1997г., Electronic Music, HDTV] Galfimbul 445538308425 MB 0 0 1294845716

18:21

12-Янв-11

Электронная музыка (video) ·· Aphex Twin (Richard David James) - Come To Daddy [1997г., Electronic Music, HDTVRip] Galfimbul 155471208148 MB 0 0 1294845650

18:20

12-Янв-11

Еще никто не оставлял запись к записи скачать торрент Aphex Twin - Come To Daddy . Будь первым!

!Обратная связь