Скачать через торрент музыку Antonella Ruggiero con Scooter - Ti Sento бесплатно без регистрации torrent

Если у вас наблюдаются проблемы со скриншотами, переходом по ссылками, скачиванием торрентов - проблемы в блокировщике рекламы AdBlock. #хорошегоДня!


Статистика раздачи
Размер:  37 MB   |    Зарегистрирован:  5 лет 10 месяцев   |    .torrent скачан:  33 раза   |   
Раздают:  1  
   
Загрузка...
 
Автор Сообщение

Galfimbul

avatar Galfimbul


Antonella Ruggiero con Scooter - Ti Sento
(Live 10.10.2009)


Жанр: Hard Trance
Продолжительность: 3mn 48s 716ms
Описание: Hans Peter Geerdes (Scooter band) with Antonella Ruggiero (Matia Bazar band) Live 10.10.2009
http://www.antonellaruggiero.com/home.htm

Треклист: 01 Ti Sento (00:03:48)

Качество: TVRip
Контейнер: MP4
Видео кодек: H.264
Аудио кодек: AAC
Видео: AVC at 1 214 Kbps 576 x 320 (1.800) at 25.000 fps
Аудио: AAC at 140 Kbps 2 channels, 44.1 KHz
Format : MPEG-4
Format profile : Base Media
Codec ID : isom
File size : 36.9 MiB
Duration : 3mn 48s
Overall bit rate : 1 355 Kbps
Encoded date : UTC 2010-11-10 12:07:03
Tagged date : UTC 2010-11-10 12:07:03

Video
ID : 1
Format : AVC
Format/Info : Advanced Video Codec
Format profile : High@L2.2
Format settings, CABAC : Yes
Format settings, ReFrames : 8 frames
Codec ID : avc1
Codec ID/Info : Advanced Video Coding
Duration : 3mn 48s
Bit rate mode : Variable
Bit rate : 1 214 Kbps
Maximum bit rate : 2 239 Kbps
Width : 576 pixels
Height : 320 pixels
Display aspect ratio : 16:9
Frame rate mode : Constant
Frame rate : 25.000 fps
Color space : YUV
Chroma subsampling : 4:2:0
Bit depth : 8 bits
Scan type : Progressive
Bits/(Pixel*Frame) : 0.263
Stream size : 33.0 MiB (89%)
Title : Imported with GPAC 0.4.6-DEV (build 1)
Writing library : x264 core 92 r1510 33d382a
Encoding settings : cabac=1 / ref=8 / deblock=1:-1:-1 / analyse=0x3:0x133 / me=umh / subme=7 / psy=1 / psy_rd=1.00:0.10 / mixed_ref=1 / me_range=16 / chroma_me=1 / trellis=2 / 8x8dct=1 / cqm=0 / deadzone=21,11 / fast_pskip=0 / chroma_qp_offset=-3 / threads=3 / sliced_threads=0 / nr=0 / decimate=1 / interlaced=0 / constrained_intra=0 / bframes=3 / b_pyramid=2 / b_adapt=2 / b_bias=0 / direct=3 / wpredb=1 / wpredp=2 / keyint=250 / keyint_min=25 / scenecut=40 / intra_refresh=0 / rc_lookahead=50 / rc=crf / mbtree=1 / crf=21.0 / qcomp=0.60 / qpmin=10 / qpmax=51 / qpstep=4 / ip_ratio=1.40 / aq=1:1.00
Encoded date : UTC 2010-11-10 12:07:03
Tagged date : UTC 2010-11-10 12:07:04

Audio
ID : 2
Format : AAC
Format/Info : Advanced Audio Codec
Format version : Version 4
Format profile : LC
Format settings, SBR : No
Codec ID : 40
Duration : 3mn 48s
Bit rate mode : Variable
Bit rate : 140 Kbps
Maximum bit rate : 159 Kbps
Channel(s) : 2 channels
Channel positions : Front: L R
Sampling rate : 44.1 KHz
Stream size : 3.82 MiB (10%)
Title : Imported with GPAC 0.4.6-DEV (build 1)
Encoded date : UTC 2010-11-10 12:07:04
Tagged date : UTC 2010-11-10 12:07:04


Трекер:  [ 23-Ноя-2011 14:39 ]

  

Скачать .torrent

Размер .torrent файла 12 KB


Размер: 37 MB
Хэш (hash) релиза: a67a32ed983484377494f5ba64e3b14faff27494

Еще никто не оставлял запись к записи скачать торрент Antonella Ruggiero con Scooter - Ti Sento . Будь первым!

!Обратная связь