Скачать через торрент музыку Combichrist - Making Monsters бесплатно без регистрации torrent

Если у вас наблюдаются проблемы со скриншотами, переходом по ссылками, скачиванием торрентов - проблемы в блокировщике рекламы AdBlock. #хорошегоДня!


Статистика раздачи
Размер:  501 MB   |    Зарегистрирован:  5 лет 10 месяцев   |    .torrent скачан:  41 раз   |   
Раздают:  1  
   
Загрузка...
 
Автор Сообщение

Galfimbul

avatar Galfimbul


Combichrist - Making Monsters (Bonus DVD) [DVDRip]

Страна: Норвегия
Жанр: EBM, Electro-Industrial
Продолжительность: 00:25:52
Год выпуска: 2010

Треклист:
01. Electrohead (Recorded Live on March 8, 2009 at Tele-Club in Ekateringburg, Russia)
02. Get Out of My Head (Recorded Live on March 8, 2009 at Tele-Club in Ekateringburg, Russia)
03. Without Emotions (Recorded Live on March 8, 2009 at Tele-Club in Ekateringburg, Russia)
04. Scarred (Recorded (Recorded Live on March 14, 2009 at Markthalle in Hamburg, Germany)
05. I Want Your Blood (Recorded Live on March 14, 2009 at Markthalle in Hamburg, Germany)

Источник: собственный рип

Качество: DVD
Контейнер: AVI
Видео кодек: XviD
Аудио кодек: MP3
Видео: PAL 4:3 (720x544) CBR (Bitrate: 2400kbps; Frame rate: 25fps)
Аудио: MP3, 320kbps, Stereo, 44100kHz
Ripped By XviD4PSP 6.001.0526 Beta
General
Complete name : Combichrist - Making Monsters (DVDRip)\Combichrist - Making Monsters (DVDRip).avi
Format : AVI
Format/Info : Audio Video Interleave
File size : 501 MiB
Duration : 25mn 52s
Overall bit rate : 2 709 Kbps
Writing application : XviD4PSP 6.001 / Lavf52.66.0
Video #0
ID : 0
Format : MPEG-4 Visual
Format profile : Simple@L3
Format settings, BVOP : No
Format settings, QPel : No
Format settings, GMC : No warppoints
Format settings, Matrix : Default (H.263)
Codec ID : XVID
Codec ID/Hint : XviD
Duration : 25mn 52s
Bit rate : 2 376 Kbps
Width : 720 pixels
Height : 544 pixels
Display aspect ratio : 4:3
Frame rate : 25.000 fps
Resolution : 24 bits
Colorimetry : 4:2:0
Scan type : Progressive
Bits/(Pixel*Frame) : 0.243
Stream size : 440 MiB (88%)
Writing library : XviD 56
Audio #1
ID : 1
Format : MPEG Audio
Format version : Version 1
Format profile : Layer 3
Codec ID : 55
Codec ID/Hint : MP3
Duration : 25mn 52s
Bit rate mode : Constant
Bit rate : 320 Kbps
Channel(s) : 2 channels
Sampling rate : 48.0 KHz
Resolution : 16 bits
Stream size : 59.2 MiB (12%)
Alignment : Aligned on interleaves
Interleave, duration : 24 ms (0.60 video frame)
Writing library : LAME3.98.2ªªªªªªªªªª


Трекер:  [ 23-Ноя-2011 14:40 ]

  

Скачать .torrent

Размер .torrent файла 20 KB


Размер: 501 MB
Хэш (hash) релиза: c63e3840163e43f1b6cf9ee6bb0fd7b37d4af851

Торренты, похожие на Combichrist - Making Monsters скачать торрент

Форум Название Автор Размер S L Добавлен
Собственные оцифровки ·· (EBM / Industrial) [LP] [24/96] Combichrist - Making Monsters - 2010 [FLAC (tracks) lossless] AqvaGen 12200788151.14 GB 0 0 1294849154

19:19

12-Янв-11

Электронная музыка (video) ·· Combichrist - Making Monsters (Bonus DVD) [2010 г., EBM, Industrial, DVD5] Galfimbul 21865144322.04 GB 0 0 1294835491

15:31

12-Янв-11

Еще никто не оставлял запись к записи скачать торрент Combichrist - Making Monsters . Будь первым!

!Обратная связь