Скачать через торрент музыку Pretty Good Dance Moves - Sample Your Body бесплатно без регистрации torrent

Если у вас наблюдаются проблемы со скриншотами, переходом по ссылками, скачиванием торрентов - проблемы в блокировщике рекламы AdBlock. #хорошегоДня!


Статистика раздачи
Размер:  55 MB   |    Зарегистрирован:  5 лет 10 месяцев   |    .torrent скачан:  39 раз   |   
Раздают:  1  
   
Загрузка...
 
Автор Сообщение

Galfimbul

avatar Galfimbul


PRETTY GOOD DANCE MOVES - Sample Your Body (Video)



Год выпуска: 2010
Жанр: Electropop
Продолжительность: 3:27
Режиссер: PGDM
В ролях: Jimmy, Aaron, Angelina

Качество: HDRip
Формат: AVI
Видео кодек: XviD
Аудио кодек: MP3
Видео: XviD, 720x408, 16:9, 2.000 Kbps, 23.976 fps
Аудио: MP3, V0, 44.1KHz, 2ch
 
GeneralComplete name : D:\My Documents\Видео\Music\Pretty Good Dance Moves - Sample Your Body (2010).aviFormat : AVIFormat/Info : Audio Video InterleaveFile size : 55.2 MiBDuration : 3mn 27sOverall bit rate : 2 232 KbpsWriting application : VirtualDubMod 1.5.10.2 (build 2540/release)Writing library : VirtualDubMod build 2540/release

VideoID : 0Format : MPEG-4 VisualFormat profile : Advanced Simple@L5Format settings, BVOP : YesFormat settings, QPel : NoFormat settings, GMC : No warppointsFormat settings, Matrix : Default (MPEG)Codec ID : XVIDCodec ID/Hint : XviDDuration : 3mn 27sBit rate : 2 000 KbpsWidth : 720 pixelsHeight : 408 pixelsDisplay aspect ratio : 16:9Frame rate : 23.976 fpsColor space : YUVChroma subsampling : 4:2:0Bit depth : 8 bitsScan type : ProgressiveBits/(Pixel*Frame) : 0.284Stream size : 49.5 MiB (90%)Writing library : XviD 1.2.1 (UTC 2008-12-04)

AudioID : 1Format : MPEG AudioFormat version : Version 1Format profile : Layer 3Codec ID : 55Codec ID/Hint : MP3Duration : 3mn 27sBit rate mode : VariableBit rate : 220 KbpsMinimum bit rate : 32.0 KbpsChannel(s) : 2 channelsSampling rate : 44.1 KHzStream size : 5.44 MiB (10%)Alignment : Aligned on interleavesInterleave, duration : 26 ms (0.63 video frame)Interleave, preload duration : 87 msWriting library : LAME3.98rEncoding settings : -m s -V 0 -q 0 -lowpass 19.5 --vbr-new -b 32
приятного просмотра =)


Трекер:  [ 23-Ноя-2011 15:23 ]

  

Скачать .torrent

Размер .torrent файла 17 KB


Размер: 55 MB
Хэш (hash) релиза: 8b75346cd97ac6a5569d00d22d4ebdf039f394bd

Еще никто не оставлял запись к записи скачать торрент Pretty Good Dance Moves - Sample Your Body . Будь первым!

!Обратная связь