Скачать через торрент музыку Mauro Picotto - Live At Mayday 2000 бесплатно без регистрации torrent

Если у вас наблюдаются проблемы со скриншотами, переходом по ссылками, скачиванием торрентов - проблемы в блокировщике рекламы AdBlock. #хорошегоДня!


Статистика раздачи
Размер:  327 MB   |    Зарегистрирован:  5 лет 10 месяцев   |    .torrent скачан:  30 раз   |   
Раздают:  1  
   
Загрузка...
 
Автор Сообщение

Galfimbul

avatar Galfimbul


Mauro Picotto - Live At Mayday 2000

Год выпуска: 2000
Жанр: Hard Techno
Продолжительность: 32 минуты 52 секунды

В ролях: Mauro Picotto

Описание: Mauro Picotto - Live At Mayday 2000

Доп. информация:

Mauro Picotto ( born December 25, 1966, Cavour, Italy ) - итальянский музыкант электронной музыки. Ранее участник итальянского рейв-сообщества Cappella, стал больше известен как сольный музыкант, DJ известный такими трэками, как "Komodo" (2000), "Pulsar" (2001, remixed в 2002) также широко известен трэком "Lizard" (1999, remixed в 2000). Известен также сотрудничеством с такими деятелями техно-движения, как Tiësto , Mario Più

Сейчас он занимается раскруткой своего ночного техно-клуба "Meganite", также он продюсирует свой звукозаписывающий лэйбл "Bakerloo"

Технические характеристики файла ниже, под спойлером
General
Complete name : E:\viva\Mauro Picotto - Live At Mayday 2000.mpg
Format : MPEG-PS
File size : 327 MiB
Duration : 32mn 52s
Overall bit rate : 1 392 Kbps

Video
ID : 224 (0xE0)
Format : MPEG Video
Format version : Version 1
Format settings, BVOP : Yes
Format settings, Matrix : Default
Duration : 32mn 52s
Bit rate mode : Constant
Bit rate : 1 113 Kbps
Nominal bit rate : 1 150 Kbps
Width : 352 pixels
Height : 288 pixels
Display aspect ratio : 4:3
Frame rate : 25.000 fps
Resolution : 8 bits
Scan type : Progressive
Bits/(Pixel*Frame) : 0.439
Stream size : 262 MiB (80%)

Audio
ID : 192 (0xC0)
Format : MPEG Audio
Format version : Version 1
Format profile : Layer 2
Duration : 32mn 52s
Bit rate mode : Constant
Bit rate : 224 Kbps
Channel(s) : 2 channels
Sampling rate : 44.1 KHz
Stream size : 52.7 MiB (16%)
Качество: VHSRip
Формат: MPEG
Видео кодек: MPEG1
Аудио кодек: MP3
Видео: 352х288, 1392 kbps, 25 fps
Аудио: 44 100 hz, 2 channel Double Mono, 224 kbps

Трекер:  [ 23-Ноя-2011 15:24 ]

  

Скачать .torrent

Размер .torrent файла 13 KB


Размер: 327 MB
Хэш (hash) релиза: 3aee160c2f1bc0da0c68fd23687afa1589bbd55a

Еще никто не оставлял запись к записи скачать торрент Mauro Picotto - Live At Mayday 2000 . Будь первым!

!Обратная связь