Скачать через торрент музыку Massive Attack - Live MTV Europe бесплатно без регистрации torrent

Если у вас наблюдаются проблемы со скриншотами, переходом по ссылками, скачиванием торрентов - проблемы в блокировщике рекламы AdBlock. #хорошегоДня!


Статистика раздачи
Размер:  367 MB   |    Зарегистрирован:  6 лет   |    .torrent скачан:  37 раз   |   
Раздают:  1  
   
Загрузка...
 
Автор Сообщение

uzi2009

avatar uzi2009


Massive Attack - Live MTV Europe

Страна: USA
Жанр: Trip-Hop
Продолжительность: 00:27:07
Год выпуска: 1998

Description: Live MTV Europe 1998

Tracks:
1. Teardrop
2. Karmacoma
3. Mezzanine
4. Inertia Creeps
5. Safe From Harm

Качество: TVRip
Контейнер: AVI
Видео кодек: XviD
Аудио кодек: MP2
Видео: MPEG-4 Visual at 1 657 Kbps 640 x 480 (1.333) at 25.000 fps
Аудио: MPEG Audio Constant at 224 Kbps 2 channels, 48.0 KHz
Format : AVI
Format/Info : Audio Video Interleave
File size : 367 MiB
Duration : 27mn 7s
Overall bit rate : 1 891 Kbps
Writing application : VirtualDubMod 1.5.10.2 (build 2540/release)
Writing library : VirtualDubMod build 2540/release

Video
ID : 0
Format : MPEG-4 Visual
Format profile : Advanced Simple@L5
Format settings, BVOP : Yes
Format settings, QPel : No
Format settings, GMC : No warppoints
Format settings, Matrix : Default (H.263)
Codec ID : XVID
Codec ID/Hint : XviD
Duration : 27mn 7s
Bit rate : 1 657 Kbps
Width : 640 pixels
Height : 480 pixels
Display aspect ratio : 4:3
Frame rate : 25.000 fps
Color space : YUV
Chroma subsampling : 4:2:0
Bit depth : 8 bits
Scan type : Progressive
Compression mode : Lossy
Bits/(Pixel*Frame) : 0.216
Stream size : 321 MiB (88%)
Writing library : XviD 1.2.1 (UTC 2008-12-04)

Audio
ID : 1
Format : MPEG Audio
Format version : Version 1
Format profile : Layer 2
Codec ID : 50
Duration : 27mn 7s
Bit rate mode : Constant
Bit rate : 224 Kbps
Channel(s) : 2 channels
Sampling rate : 48.0 KHz
Compression mode : Lossy
Stream size : 43.5 MiB (12%)
Alignment : Aligned on interleaves
Interleave, duration : 40 ms (1.00 video frame)
Interleave, preload duration : 504 ms


Трекер:  [ 11-Окт-2011 13:23 ]

  

Скачать .torrent

Размер .torrent файла 15 KB


Размер: 367 MB
Хэш (hash) релиза: 329a4f87a6437c69b15cca42786d2cdef914d9a4

bot

Топик был перенесен в форум Электронная музыка (video)

Перенес uzi2009

Хотите добавить комментарий к записи скачать торрент Massive Attack - Live MTV Europe

!Обратная связь