Скачать через торрент музыку Per Gessle - Small Apartments бесплатно без регистрации torrent

Если у вас наблюдаются проблемы со скриншотами, переходом по ссылками, скачиванием торрентов - проблемы в блокировщике рекламы AdBlock. #хорошегоДня!


Статистика раздачи
Размер:  516 MB   |    Зарегистрирован:  4 года   |    .torrent скачан:  21 раз   |   
Раздают:  1  
   
Загрузка...
 
Автор Сообщение

Polarnik

avatar Polarnik


Per Gessle / Small Apartments (The Motion Picture Soundtrack)

Жанр: Pop / Pop-Rock / Score
Страна-производитель диска: EU
Год издания: 2013
Издатель (лейбл): Elevator Entertainment / EMI Music Sweden AB
Номер по каталогу: 50999 975084 2 7
Страна: Sweden
Аудиокодек: FLAC (*.flac)
Тип рипа: image+.cue
Битрейт аудио: lossless
Продолжительность: 00:55:06
Наличие сканов в содержимом раздачи: да / PNG 600 dpi

Треклист:

01. Franklin''s Intro (0:55)
02. I Have A Party In My Head (I Hope It Never Ends) (Instrumental) (2:05)
03. Drizzle #1 (2:02)
04. Shopping With Mother (2:36)
05. Franklin''s Theme #1 (1:42)
06. He Ain''t Heavy...He''s My Brother (4:17)
07. Burned Out Heart (Instrumental) (3:38)
08. Are You An Old Hippie, Sir? (Instrumental) (1:43)
09. Making Love Or Expecting Rain #1 (Instrumental) (2:55)
10. Waltz For Woody (1:04)
11. Drizzle #2 (2:02)
12. C''mon (2:59)
13. Warm.Again. (4:26)
14. Drizzle #3 (2:02)
15. Drizzle #4 (0:57)
16. Week With Four Thursdays (1:58)
17. Dixy (Instrumental) (3:10)
18. Making Love Or Expecting Rain #2 (Instrumental) (4:05)
19. Double-Headed Elvis (Instrumental) (1:35)
20. Franklin''s Main Theme (6:46)
21. I Have A Party In My Head (I Hope It Never Ends) (2:08)
Exact Audio Copy V1.0 beta 2 from 29. April 2011

EAC extraction logfile from 27. August 2013, 20:07

Per Gessle / Small Apartments (The Motion Picture Soundtrack)

Used drive : PIONEER BD-RW BDR-207D Adapter: 5 ID: 0

Read mode : SecureUtilize accurate stream : YesDefeat audio cache : YesMake use of C2 pointers : No

Read offset correction : 667Overread into Lead-In and Lead-Out : NoFill up missing offset samples with silence : YesDelete leading and trailing silent blocks : NoNull samples used in CRC calculations : YesUsed interface : Native Win32 interface for Win NT & 2000

Used output format : User Defined EncoderSelected bitrate : 768 kBit/sQuality : HighAdd ID3 tag : NoCommand line compressor : C:\Program Files\Exact Audio Copy\FLAC\FLAC.EXEAdditional command line options : -V -8 -T "Date=%year%" -T "Genre=%genre%" %source%

TOC of the extracted CD

Track | Start | Length | Start sector | End sector --------------------------------------------------------- 1 | 0:00.00 | 0:55.34 | 0 | 4158 2 | 0:55.34 | 2:04.73 | 4159 | 13531 3 | 3:00.32 | 2:02.13 | 13532 | 22694 4 | 5:02.45 | 2:35.72 | 22695 | 34391 5 | 7:38.42 | 1:41.51 | 34392 | 42017 6 | 9:20.18 | 4:17.53 | 42018 | 61345 7 | 13:37.71 | 3:37.36 | 61346 | 77656 8 | 17:15.32 | 1:43.06 | 77657 | 85387 9 | 18:58.38 | 2:55.25 | 85388 | 98537 10 | 21:53.63 | 1:03.43 | 98538 | 103305 11 | 22:57.31 | 2:01.68 | 103306 | 112448 12 | 24:59.24 | 2:58.68 | 112449 | 125866 13 | 27:58.17 | 4:26.51 | 125867 | 145867 14 | 32:24.68 | 2:01.58 | 145868 | 155000 15 | 34:26.51 | 0:56.46 | 155001 | 159246 16 | 35:23.22 | 1:57.53 | 159247 | 168074 17 | 37:21.00 | 3:10.13 | 168075 | 182337 18 | 40:31.13 | 4:05.00 | 182338 | 200712 19 | 44:36.13 | 1:34.71 | 200713 | 207833 20 | 46:11.09 | 6:46.30 | 207834 | 238313 21 | 52:57.39 | 2:08.17 | 238314 | 247930

Range status and errors

Selected range

Filename E:\Uploads\Per Gessle - Small Apartments (The Motion Picture Soundtrack) (50999 975084 2 7) (2013)\Per Gessle - Small Apartments (The Motion Picture Soundtrack) (50999 975084 2 7) (2013).wav

Peak level 96.4 % Extraction speed 4.2 X Range quality 99.9 % Test CRC 3B21747A Copy CRC 3B21747A Copy OK

No errors occurred

AccurateRip summary

Track 1 not present in databaseTrack 2 not present in databaseTrack 3 not present in databaseTrack 4 not present in databaseTrack 5 not present in databaseTrack 6 not present in databaseTrack 7 not present in databaseTrack 8 not present in databaseTrack 9 not present in databaseTrack 10 not present in databaseTrack 11 not present in databaseTrack 12 not present in databaseTrack 13 not present in databaseTrack 14 not present in databaseTrack 15 not present in databaseTrack 16 not present in databaseTrack 17 not present in databaseTrack 18 not present in databaseTrack 19 not present in databaseTrack 20 not present in databaseTrack 21 not present in database

None of the tracks are present in the AccurateRip database

End of status report

==== Log checksum 69C4D1E97C0383568418DB9CD53AA70555B6CE66CA9C9F9FC68E94D7BD7D2AC8 ====
REM GENRE PopREM DATE 2013REM DISCID 120CE915REM COMMENT "ExactAudioCopy v1.0b2"PERFORMER "Per Gessle"TITLE "Small Apartments (The Motion Picture Soundtrack)"FILE "Per Gessle - Small Apartments (The Motion Picture Soundtrack) (50999 975084 2 7) (2013).flac" WAVE TRACK 01 AUDIO TITLE "Franklin''s Intro" PERFORMER "Per Gessle" INDEX 01 00:00:00 TRACK 02 AUDIO TITLE "I Have A Party In My Head (I Hope It Never Ends) (Instrumental)" PERFORMER "Per Gessle" INDEX 01 00:55:34 TRACK 03 AUDIO TITLE "Drizzle #1" PERFORMER "Per Gessle" INDEX 01 03:00:32 TRACK 04 AUDIO TITLE "Shopping With Mother" PERFORMER "Per Gessle" INDEX 01 05:02:45 TRACK 05 AUDIO TITLE "Franklin''s Theme #1" PERFORMER "Per Gessle" INDEX 01 07:38:42 TRACK 06 AUDIO TITLE "He Ain''t Heavy...He''s My Brother" PERFORMER "Per Gessle" INDEX 01 09:20:18 TRACK 07 AUDIO TITLE "Burned Out Heart (Instrumental)" PERFORMER "Per Gessle" INDEX 01 13:37:71 TRACK 08 AUDIO TITLE "Are You An Old Hippie, Sir? (Instrumental)" PERFORMER "Per Gessle" INDEX 01 17:15:32 TRACK 09 AUDIO TITLE "Making Love Or Expecting Rain #1 (Instrumental)" PERFORMER "Per Gessle" INDEX 01 18:58:38 TRACK 10 AUDIO TITLE "Waltz For Woody" PERFORMER "Per Gessle" INDEX 01 21:53:63 TRACK 11 AUDIO TITLE "Drizzle #2" PERFORMER "Per Gessle" INDEX 01 22:57:31 TRACK 12 AUDIO TITLE "C''mon" PERFORMER "Per Gessle" INDEX 01 24:59:24 TRACK 13 AUDIO TITLE "Warm.Again." PERFORMER "Per Gessle" INDEX 01 27:58:17 TRACK 14 AUDIO TITLE "Drizzle #3" PERFORMER "Per Gessle" INDEX 01 32:24:68 TRACK 15 AUDIO TITLE "Drizzle #4" PERFORMER "Per Gessle" INDEX 01 34:26:51 TRACK 16 AUDIO TITLE "Week With Four Thursdays" PERFORMER "Per Gessle" INDEX 01 35:23:22 TRACK 17 AUDIO TITLE "Dixy (Instrumental)" PERFORMER "Per Gessle" INDEX 01 37:21:00 TRACK 18 AUDIO TITLE "Making Love Or Expecting Rain #2 (Instrumental)" PERFORMER "Per Gessle" INDEX 01 40:31:13 TRACK 19 AUDIO TITLE "Double-Headed Elvis (Instrumental)" PERFORMER "Per Gessle" INDEX 01 44:36:13 TRACK 20 AUDIO TITLE "Franklin''s Main Theme" PERFORMER "Per Gessle" INDEX 01 46:11:09 TRACK 21 AUDIO TITLE "I Have A Party In My Head (I Hope It Never Ends)" PERFORMER "Per Gessle" INDEX 01 52:57:39
Пер Хокан Гессле (швед. Per Hаkan Gessle; род. 12 января 1959 года, Хальмстад, Швеция) - шведский музыкальный исполнитель, композитор, продюсер, автор песен и вокалист в шведских группах Gyllene Tider и Roxette.
Саундтрек к фильму Юнаса Окерлунда (Jonas Akerlund) Small Apartments (в российском прокате "Безвыходная ситуация").
Per Gessle - vocals, guitar
Clarence Оfwerman - keyboards
Christoffer Lundquist - guitar
Jens Jansson - drums
Helena Josefsson - vocals


Трекер:  [ 25-Сен-2013 08:31 ]

  

Скачать .torrent

Размер .torrent файла 7 KB


Размер: 516 MB
Хэш (hash) релиза: aeb59e0e780b8105efc799ed467cbbf50b699ca6

Торренты, похожие на Per Gessle - Small Apartments скачать торрент

Форум Название Автор Размер S L Добавлен
Саундтреки к фильмам и мультфильмам (mp3) ·· (Soundtrack) Тесные Квартиры / Small Apartments (Per Gessle) - 2013, MP3, 320 kbps Galfimbul 133929107128 MB 0 0 1367355017

23:50

30-Апр-13

Еще никто не оставлял запись к записи скачать торрент Per Gessle - Small Apartments . Будь первым!

!Обратная связь