Скачать через торрент музыку Влюбленные женщины Women in Love бесплатно без регистрации torrent

Если у вас наблюдаются проблемы со скриншотами, переходом по ссылками, скачиванием торрентов - проблемы в блокировщике рекламы AdBlock. #хорошегоДня!


Статистика раздачи
Размер:  617 MB   |    Зарегистрирован:  4 года   |    .torrent скачан:  29 раз   |   
Раздают:  1  
   
Загрузка...
 
Автор Сообщение

Polarnik

avatar Polarnik



Влюбленные женщины / Women in Love
Music by Georges Delerue
Limited Edition of 1000 Units

Жанр: Score | Дата выпуска: 30 июля 2012
Издатель (лейбл): Quartet | Номер по каталогу: QRSCE044
Аудиокодек: FLAC | Тип рипа: image+.cue | Битрейт аудио: lossless
Общая продолжительность: 47:37
* THE ORIGINAL ALBUM *
01. Wrestling Scene [03:185]
02. Transcendental Love Theme [01:18]
03. Around the Church/Birkin Though Woods [00:59]
04. Gerald & Gudrun Love Scene [02:31]
05. Cattle Sequence [03:28]
06. Birkin & Ursula Love Scene [02:14]
07. The Revolt [01:53]
08. Arrival in Switzerland [00:52]
09. Summer House [02:27]
10. The Snow [00:44]
11. The Brangwen House [03:40]
12. Love Theme from Women in Love [01:31]
13. Revenge Scene[05:35]
14. End Title [00:49]

** THE EXTRAS **
15. I’m Forever Blowing Bubbles [01:58]
16. Swimming Pool [00:39]
17. The Gondoliers [01:16]
18. Oh You Beautiful Doll [01:23]
19. Waltz [00:55]
20. Polka [01:50]
21. Dance Hall [05:07]
22. Love Theme from Women in Love (LeRoy Holmes Orchestra) [02:48/03:13]
Exact Audio Copy V1.0 beta 3 from 29. August 2011

EAC extraction logfile from 27. August 2013, 14:17

Georges Delerue / Women in Love

Used drive : TSSTcorpCDDVDW TS-L633C Adapter: 2 ID: 0

Read mode : SecureUtilize accurate stream : YesDefeat audio cache : YesMake use of C2 pointers : No

Read offset correction : 6Overread into Lead-In and Lead-Out : NoFill up missing offset samples with silence : YesDelete leading and trailing silent blocks : NoNull samples used in CRC calculations : YesUsed interface : Native Win32 interface for Win NT & 2000

Used output format : Internal WAV RoutinesSample format : 44.100 Hz; 16 Bit; Stereo

TOC of the extracted CD

Track | Start | Length | Start sector | End sector --------------------------------------------------------- 1 | 0:00.00 | 3:15.01 | 0 | 14625 2 | 3:15.01 | 1:18.46 | 14626 | 20521 3 | 4:33.47 | 0:59.52 | 20522 | 24998 4 | 5:33.24 | 2:31.06 | 24999 | 36329 5 | 8:04.30 | 3:28.37 | 36330 | 51966 6 | 11:32.67 | 2:14.07 | 51967 | 62023 7 | 13:46.74 | 1:53.08 | 62024 | 70506 8 | 15:40.07 | 0:52.64 | 70507 | 74470 9 | 16:32.71 | 2:27.74 | 74471 | 85569 10 | 19:00.70 | 0:44.28 | 85570 | 88897 11 | 19:45.23 | 3:40.59 | 88898 | 105456 12 | 23:26.07 | 1:31.49 | 105457 | 112330 13 | 24:57.56 | 5:35.60 | 112331 | 137515 14 | 30:33.41 | 0:49.06 | 137516 | 141196 15 | 31:22.47 | 1:58.68 | 141197 | 150114 16 | 33:21.40 | 0:39.60 | 150115 | 153099 17 | 34:01.25 | 1:16.02 | 153100 | 158801 18 | 35:17.27 | 1:23.08 | 158802 | 165034 19 | 36:40.35 | 0:55.27 | 165035 | 169186 20 | 37:35.62 | 1:50.34 | 169187 | 177470 21 | 39:26.21 | 5:07.39 | 177471 | 200534 22 | 44:33.60 | 3:13.04 | 200535 | 215013

Range status and errors

Selected range

Filename C:\Users\user\Desktop\Georges Delerue - Women in Love (SCE044).wav

Peak level 96.5 % Extraction speed 3.5 X Range quality 99.9 % Test CRC F3F2C60C Copy CRC F3F2C60C Copy OK

No errors occurred

AccurateRip summary

Track 1 accurately ripped (confidence 7) [5A3008D7] (AR v2)Track 2 accurately ripped (confidence 7) [8D9FA6B3] (AR v2)Track 3 accurately ripped (confidence 7) [AF4F5966] (AR v2)Track 4 accurately ripped (confidence 7) [AEDE67CB] (AR v2)Track 5 accurately ripped (confidence 7) [4363449B] (AR v2)Track 6 accurately ripped (confidence 7) [524D52E7] (AR v2)Track 7 accurately ripped (confidence 7) [296C652F] (AR v2)Track 8 accurately ripped (confidence 7) [94F42E1B] (AR v2)Track 9 accurately ripped (confidence 7) [59581A14] (AR v2)Track 10 accurately ripped (confidence 7) [CCB7D501] (AR v2)Track 11 accurately ripped (confidence 7) [2C66D9B3] (AR v2)Track 12 accurately ripped (confidence 7) [328B0EFE] (AR v2)Track 13 accurately ripped (confidence 7) [3FDFAA3F] (AR v2)Track 14 accurately ripped (confidence 7) [8109E2F9] (AR v2)Track 15 accurately ripped (confidence 7) [F3680CA0] (AR v2)Track 16 accurately ripped (confidence 7) [8E8466CB] (AR v2)Track 17 accurately ripped (confidence 7) [4A81E16D] (AR v2)Track 18 accurately ripped (confidence 7) [ECAFEC1E] (AR v2)Track 19 accurately ripped (confidence 7) [7AB02127] (AR v2)Track 20 accurately ripped (confidence 7) [78A6465B] (AR v2)Track 21 accurately ripped (confidence 7) [C94512D2] (AR v2)Track 22 accurately ripped (confidence 7) [E0EE51AB] (AR v2)

All tracks accurately ripped

End of status report

---- CUETools DB Plugin V2.1.4

[CTDB TOCID: 1MVARw57mqN7U2YCUJY3bs1eWtI-] foundSubmit result: 1MVARw57mqN7U2YCUJY3bs1eWtI- has been confirmedTrack | CTDB Status 1 | (5/5) Accurately ripped 2 | (5/5) Accurately ripped 3 | (5/5) Accurately ripped 4 | (5/5) Accurately ripped 5 | (5/5) Accurately ripped 6 | (5/5) Accurately ripped 7 | (5/5) Accurately ripped 8 | (5/5) Accurately ripped 9 | (5/5) Accurately ripped 10 | (5/5) Accurately ripped 11 | (5/5) Accurately ripped 12 | (5/5) Accurately ripped 13 | (5/5) Accurately ripped 14 | (5/5) Accurately ripped 15 | (5/5) Accurately ripped 16 | (5/5) Accurately ripped 17 | (5/5) Accurately ripped 18 | (5/5) Accurately ripped 19 | (5/5) Accurately ripped 20 | (5/5) Accurately ripped 21 | (5/5) Accurately ripped 22 | (5/5) Accurately ripped

==== Log checksum E2E7F6DF0EB9F449478494196BF1722A6F918314CA41110DA6D952B6851D6C13 ====
REM GENRE SoundtrackREM DATE 1969REM DISCID 440B3216REM COMMENT "ExactAudioCopy v1.0b3"PERFORMER "Georges Delerue"TITLE "Women in Love"FILE "Georges Delerue - Women in Love (SCE044).wav" WAVE TRACK 01 AUDIO TITLE "Wrestling Scene" PERFORMER "Georges Delerue" FLAGS DCP INDEX 01 00:00:00 TRACK 02 AUDIO TITLE "Trascendental Love Theme" PERFORMER "Georges Delerue" FLAGS DCP INDEX 01 03:15:01 TRACK 03 AUDIO TITLE "Around The Church - Birkin Though Woods" PERFORMER "Georges Delerue" FLAGS DCP INDEX 01 04:33:47 TRACK 04 AUDIO TITLE "Gerald & Gudrun Love Scene" PERFORMER "Georges Delerue" FLAGS DCP INDEX 01 05:33:24 TRACK 05 AUDIO TITLE "Cattle Sequence" PERFORMER "Georges Delerue" FLAGS DCP INDEX 01 08:04:30 TRACK 06 AUDIO TITLE "Birkin & Ursula Love Scene" PERFORMER "Georges Delerue" FLAGS DCP INDEX 01 11:32:67 TRACK 07 AUDIO TITLE "The Revolt" PERFORMER "Georges Delerue" FLAGS DCP INDEX 01 13:46:74 TRACK 08 AUDIO TITLE "Arrival in Switzerland" PERFORMER "Georges Delerue" FLAGS DCP INDEX 01 15:40:07 TRACK 09 AUDIO TITLE "Summer House" PERFORMER "Georges Delerue" FLAGS DCP INDEX 01 16:32:71 TRACK 10 AUDIO TITLE "The Snow" PERFORMER "Georges Delerue" FLAGS DCP INDEX 01 19:00:70 TRACK 11 AUDIO TITLE "The Brangwen House" PERFORMER "Georges Delerue" FLAGS DCP INDEX 01 19:45:23 TRACK 12 AUDIO TITLE "Love Theme From Women in Love" PERFORMER "Georges Delerue" FLAGS DCP INDEX 01 23:26:07 TRACK 13 AUDIO TITLE "Revenge Scene" PERFORMER "Georges Delerue" FLAGS DCP INDEX 01 24:57:56 TRACK 14 AUDIO TITLE "End Title" PERFORMER "Georges Delerue" FLAGS DCP INDEX 01 30:33:41 TRACK 15 AUDIO TITLE "I''m Forever Blowing Bubbles [Bonus]" PERFORMER "Georges Delerue" FLAGS DCP INDEX 01 31:22:47 TRACK 16 AUDIO TITLE "Swimming Pool [Bonus]" PERFORMER "Georges Delerue" FLAGS DCP INDEX 01 33:21:40 TRACK 17 AUDIO TITLE "The Gondoliers [Bonus]" PERFORMER "Georges Delerue" FLAGS DCP INDEX 01 34:01:25 TRACK 18 AUDIO TITLE "Oh You Beautiful Doll [Bonus]" PERFORMER "Georges Delerue" FLAGS DCP INDEX 01 35:17:27 TRACK 19 AUDIO TITLE "Waltz [Bonus]" PERFORMER "Georges Delerue" FLAGS DCP INDEX 01 36:40:35 TRACK 20 AUDIO TITLE "Polka [Bonus]" PERFORMER "Georges Delerue" FLAGS DCP INDEX 01 37:35:62 TRACK 21 AUDIO TITLE "Dance Hall [Bonus]" PERFORMER "Georges Delerue" FLAGS DCP INDEX 01 39:26:21 TRACK 22 AUDIO TITLE "Love Theme From Women in Love [Bonus]" PERFORMER "Georges Delerue" FLAGS DCP INDEX 01 44:33:60


Трекер:  [ 25-Сен-2013 08:31 ]

  

Скачать .torrent

Размер .torrent файла 13 KB


Размер: 617 MB
Хэш (hash) релиза: 3be3f94f43dddc2b9bbdccc04172de013aff8b1c

Торренты, похожие на Влюбленные женщины Women in Love скачать торрент

Форум Название Автор Размер S L Добавлен
Саундтреки ·· (Score) Влюбленные женщины / Women in Love (by Georges Delerue) - 2012 (1969), MP3 (tracks), 320 kbps Galfimbul 115754063110 MB 0 0 1347171480

09:18

9-Сен-12

Еще никто не оставлял запись к записи скачать торрент Влюбленные женщины Women in Love . Будь первым!

!Обратная связь