Скачать через торрент музыку Delerium feat. Kreesha Turner - Dust in gravity бесплатно без регистрации torrent

Если у вас наблюдаются проблемы со скриншотами, переходом по ссылками, скачиванием торрентов - проблемы в блокировщике рекламы AdBlock. #хорошегоДня!


Статистика раздачи
Размер:  67 MB   |    Зарегистрирован:  5 лет 10 месяцев   |    .torrent скачан:  32 раза   |   
Раздают:  1  
   
Загрузка...
 
Автор Сообщение

Galfimbul

avatar Galfimbul


Delerium feat. Kreesha Turner - Dust in gravity

Страна: Canada
Жанр: House / Dance
Продолжительность: 00:03:30
Год выпуска: 2009
Источник: собственный рип

Качество: DVDRip
Контейнер: AVI
Видео кодек: XviD
Аудио кодек: AC3
Видео: Xvid 720x336 (2.2:1) 2343kbps 29.97fps
Аудио: Dolby AC3 320kbps 48000Hz stereo

Описание: Песня группы Delerium "Dust in gravity", записанная в 2009 году совместно с канадской исполнительницей Kreesha Turner, 5 июня того же года достигла верхней строчки в "US Billboard Dance Charts".
 
GeneralComplete name : C:\Documents and Settings\Admin\Мои документы\Torrents\Delerium feat. Kreesha Turner - Dust in gravity.aviFormat : AVIFormat/Info : Audio Video InterleaveFile size : 67.2 MiBDuration : 3mn 30sOverall bit rate : 2 675 KbpsWriting application : VirtualDubMod 1.5.10.2 (build 2540/release)Writing library : VirtualDubMod build 2540/release

VideoID : 0Format : MPEG-4 VisualFormat profile : Advanced Simple@L5Format settings, BVOP : YesFormat settings, QPel : NoFormat settings, GMC : No warppointsFormat settings, Matrix : Default (MPEG)Codec ID : XVIDCodec ID/Hint : XviDDuration : 3mn 30sBit rate : 2 343 KbpsWidth : 720 pixelsHeight : 336 pixelsDisplay aspect ratio : 2.2:1Frame rate : 29.970 fpsColor space : YUVChroma subsampling : 4:2:0Bit depth : 8 bitsScan type : ProgressiveCompression mode : LossyBits/(Pixel*Frame) : 0.323Stream size : 58.8 MiB (88%)Writing library : XviD 1.2.1 (UTC 2008-12-04)

AudioID : 1Format : AC-3Format/Info : Audio Coding 3Mode extension : CM (complete main)Codec ID : 2000Duration : 3mn 30sBit rate mode : ConstantBit rate : 320 KbpsChannel(s) : 2 channelsChannel positions : Front: L RSampling rate : 48.0 KHzBit depth : 16 bitsCompression mode : LossyStream size : 8.02 MiB (12%)Alignment : Aligned on interleavesInterleave, duration : 33 ms (1.00 video frame)Interleave, preload duration : 512 ms


Трекер:  [ 23-Ноя-2011 15:54 ]

  

Скачать .torrent

Размер .torrent файла 11 KB


Размер: 67 MB
Хэш (hash) релиза: 2b29337caf1ab5aadc06e3b645d5df728b11ea32

Еще никто не оставлял запись к записи скачать торрент Delerium feat. Kreesha Turner - Dust in gravity . Будь первым!

!Обратная связь