Скачать через торрент музыку Оленёнок Рудольф Rudolph Mit Der Roten Nase бесплатно без регистрации torrent

Если у вас наблюдаются проблемы со скриншотами, переходом по ссылками, скачиванием торрентов - проблемы в блокировщике рекламы AdBlock. #хорошегоДня!


Статистика раздачи
Размер:  228 MB   |    Зарегистрирован:  3 года 11 месяцев   |    .torrent скачан:  25 раз   |   
Раздают:  1  
   
Загрузка...
 
Автор Сообщение

Polarnik

avatar Polarnik


Оленёнок Рудольф / Rudolph Mit Der Roten Nase

Название альбома: Various (Ft. Nina Hagen) - Rudolph Mit Der Roten Nase
Жанр: Soundtrack
Год выпуска диска: 1999
Год выпуска фильма: 1998
Страна-производитель диска: Germany
Издатель (лейбл): GEMA
Номер по каталогу: 58039
Аудиокодек: FLAC (*.flac)
Тип рипа: image+.cue
Битрейт аудио: lossless
Продолжительность: 00:35:46
Наличие сканов в содержимом раздачи: нет
Треклист:
01-Rudolpg das kleine Rentier (Michael Schanze)
02-Zeig mir das Licht (Eric Brodka Und Bianca Shomburg)
03-Die Feen des Norpollichts (Feen)
04-Was ist mit der Roten Nas` (Walter v. Hauff Und Chor)
05-Die Weihnachtsstadt (Chor)
06-Bei den Rentierspielen (Chor)
07-Zuhaus bei Santa Claus (Wolfgang Volz Und Chor)
08-Zeig mir das Licht (Julian Feifel Und Cathrin)
09-Es konnte noch schlimmer sein (Thomas Fritsch Und Chor)
10-Wonderfull Chistmastime (Wings)
11-Ich hasse Santa Claus (Nina Hagen Und Chor)
12-Stormellas Sturm (Feen)
13-Wir sind starker (Julian Feifel Und Chor)
14-Rudolph das kleine Rentier (Wolfgang Volz Und Chor)
Exact Audio Copy V0.99 prebeta 3 from 28. July 2007

Отчёт EAC об извлечении, выполненном 26. августа 2013, 23:00

Various (Ft. Nina Hagen) / Rudolph Mit Der Roten Nase

Дисковод: TSSTcorpCDDVDW SE-S084F Adapter: 2 ID: 0

Режим чтения : ДостоверностьИспользование точного потока : ДаОтключение кэша аудио : ДаИспользование указателей C2 : Нет

Коррекция смещения при чтении : 6Способность читать области Lead-in и Lead-out : НетЗаполнение пропущенных сэмплов тишиной : ДаУдаление блоков с тишиной в начале и конце : НетПри вычислениях CRC использовались нулевые сэмплы : ДаИнтерфейс : Встроенный Win32-интерфейс для Win NT/2000

Выходной формат : Пользовательский кодировщикВыбранный битрейт : 128 kBit/sКачество : ВысокийДобавление ID3-тэга : НетУтилита сжатия : C:\Program Files (x86)\Exact Audio Copy\FLAC\FLAC.EXEДополнительные параметры : -6 -V -T "ARTIST=%a" -T "TITLE=%t" -T "ALBUM=%g" -T "DATE=%y" -T "TRACKNUMBER=%n" -T "GENRE=%m" -T "COMMENT=%e" %s -o %d

TOC извлечённого CD

Трек | Старт | Длительность | Начальный сектор | Конечный сектор --------------------------------------------------------------------- 1 | 0:00.00 | 2:30.37 | 0 | 11286 2 | 2:30.37 | 4:42.40 | 11287 | 32476 3 | 7:13.02 | 0:41.00 | 32477 | 35551 4 | 7:54.02 | 2:30.55 | 35552 | 46856 5 | 10:24.57 | 1:55.10 | 46857 | 55491 6 | 12:19.67 | 0:28.48 | 55492 | 57639 7 | 12:48.40 | 3:37.05 | 57640 | 73919 8 | 16:25.45 | 3:16.25 | 73920 | 88644 9 | 19:41.70 | 2:48.12 | 88645 | 101256 10 | 22:30.07 | 3:47.08 | 101257 | 118289 11 | 26:17.15 | 3:35.17 | 118290 | 134431 12 | 29:52.32 | 0:14.28 | 134432 | 135509 13 | 30:06.60 | 3:17.07 | 135510 | 150291 14 | 33:23.67 | 2:22.33 | 150292 | 160974

Характеристики диапазона извлечения и сообщения об ошибках

Выбранный диапазон

Имя файла D:\FLAC\Новая папка\Various (Ft. Nina Hagen) - Rudolph Mit Der Roten Nase.wav

Пиковый уровень 100.0 % Качество диапазона 100.0 % CRC теста 7F1D7011 CRC копии 7F1D7011 Копирование... OK

Ошибок не произошло

AccurateRip: сводка

Трек 1 точное извлечение (доверие 2) [742F7798]Трек 2 точное извлечение (доверие 2) [49B6E04A]Трек 3 точное извлечение (доверие 2) [1147A119]Трек 4 точное извлечение (доверие 2) [7D82D8C5]Трек 5 точное извлечение (доверие 2) [C3BF1EFB]Трек 6 точное извлечение (доверие 2) [6A6109E5]Трек 7 точное извлечение (доверие 2) [BA8A31EF]Трек 8 точное извлечение (доверие 2) [912063AB]Трек 9 точное извлечение (доверие 2) [A2D102A4]Трек 10 точное извлечение (доверие 2) [CC9B54D0]Трек 11 точное извлечение (доверие 2) [5F6B63C6]Трек 12 точное извлечение (доверие 2) [EB6F5DDF]Трек 13 точное извлечение (доверие 2) [C088E4D6]Трек 14 точное извлечение (доверие 2) [85DA269A]

Все треки извлечены точно

Конец отчёта
REM GENRE WeihnachtenREM DISCID C208620EREM COMMENT "ExactAudioCopy v0.99pb3"PERFORMER "Various (Ft. Nina Hagen)"TITLE "Rudolph Mit Der Roten Nase"FILE "Various (Ft. Nina Hagen) - Rudolph Mit Der Roten Nase.flac" WAVE TRACK 01 AUDIO TITLE "Rudolpg das kleine Rentier" PERFORMER "Rudolpg das kleine Rentier" INDEX 01 00:00:00 TRACK 02 AUDIO TITLE "Zeig mir das Licht" PERFORMER "Zeig mir das Licht" INDEX 00 02:28:57 INDEX 01 02:30:37 TRACK 03 AUDIO TITLE "Die Feen des Norpollichts" PERFORMER "Die Feen des Norpollichts" INDEX 00 07:11:35 INDEX 01 07:13:02 TRACK 04 AUDIO TITLE "Was ist mit der Roten NAS`" PERFORMER "Was ist mit der Roten NAS`" INDEX 00 07:52:42 INDEX 01 07:54:02 TRACK 05 AUDIO TITLE "Die Weihnachtsstadt" PERFORMER "Die Weihnachtsstadt" INDEX 00 10:23:15 INDEX 01 10:24:57 TRACK 06 AUDIO TITLE "Bei den Rentierspielen" PERFORMER "Bei den Rentierspielen" INDEX 00 12:18:10 INDEX 01 12:19:67 TRACK 07 AUDIO TITLE "Zuhaus bei Santa Claus" PERFORMER "Zuhaus bei Santa Claus" INDEX 00 12:46:62 INDEX 01 12:48:40 TRACK 08 AUDIO TITLE "Zeig mir das Licht" PERFORMER "Zeig mir das Licht" INDEX 00 16:23:67 INDEX 01 16:25:45 TRACK 09 AUDIO TITLE "Es konnte noch schlimmer sein" PERFORMER "Es konnte noch schlimmer sein" INDEX 00 19:40:30 INDEX 01 19:41:70 TRACK 10 AUDIO TITLE "Wonderfull Chistmastime" PERFORMER "Wonderfull Chistmastime" INDEX 00 22:28:40 INDEX 01 22:30:07 TRACK 11 AUDIO TITLE "Ich hasse Santa Claus" PERFORMER "Ich hasse Santa Claus" INDEX 00 26:15:45 INDEX 01 26:17:15 TRACK 12 AUDIO TITLE "Stormellas Sturm" PERFORMER "Stormellas Sturm" INDEX 00 29:51:02 INDEX 01 29:52:32 TRACK 13 AUDIO TITLE "Wir sind starker" PERFORMER "Wir sind starker" INDEX 00 30:05:30 INDEX 01 30:06:60 TRACK 14 AUDIO TITLE "Rudolph das kleine Rentier" PERFORMER "Rudolph das kleine Rentier" INDEX 00 33:22:25 INDEX 01 33:23:67


Трекер:  [ 25-Сен-2013 08:32 ]

  

Скачать .torrent

Размер .torrent файла 18 KB


Размер: 228 MB
Хэш (hash) релиза: df1b9af8bcf00020572f7cc35c4c45079513bfb4

Еще никто не оставлял запись к записи скачать торрент Оленёнок Рудольф Rudolph Mit Der Roten Nase . Будь первым!

!Обратная связь