Скачать порно через торрент Shinshou Genmukan Visions Hall Makoto Akira UnionPeer.org бесплатно онлайн HD качество

Скачать новое порно 2015, 2014 новинки через торрент UnionPeer.org

Порно торрент бесплатно ЮнионПир.орг

Если у вас наблюдаются проблемы со скриншотами, переходом по ссылками, скачиванием торрентов - проблемы в блокировщике рекламы AdBlock. #хорошегоДня!


Статистика раздачи
Размер:  4.44 GB   |    Зарегистрирован:  3 года 11 месяцев   |    .torrent скачан:  116 раз   |   
Раздают:  1  
   
Загрузка...
 
Автор Сообщение

LinGr

avatar LinGr



Shinshou Genmukan / Visions Hall Makoto Akira / 真章 幻夢館
Видения Макото Акира / Особняк грёз 2

Год производства: 2010 г.
Жанр: Anal sex, Bondage, Toys, Big tits, Group sex, Oral sex, Hospital, Yuri, Harem
Серии: ep. 1-4 of 4
Продолжительность: 4х~15 min (2 эпизода на одном диске = 2 диска)
Цензура: Есть

Озвучка: Оригинальная (Японский)

Режиссер: Yuuki Shinjuurou
Автор оригинала: Ciel
Студия: ChiChi No Ya

Описание RUS: Продолжение истории про детектива и его симпатичную помощницу,теперь в их кампанию влилась еще и красавица горничная. Детективу предстоит расследовать новое дело,которое как всегда закончится сексом.

Описание ENG: 3 months ago, detective Kido Satoru accepted an odd assignment at the suspicious western-style mansion Genmukan. There, he was caught up in a tragedy of love and hate. 3 months ago, he had rescued the maid Watase Nozomi from the inferno which consumed the mansion. However, the story is not quite over yet...

Информационные ссылки:
AniDB - MAL - World Art - ХентайМаг
Доп. информация: Адаптация одноименной хентайной игры компании Ciel.

Качество видео: 2x DVD5
Формат видео: DVD Video
Видео кодек: MPEG2
Аудио кодек: AC3
Видео: 720х480, (16:9), 29,970 кадров/сек, ~ 6000 Кбит/сек, NTSC
Аудио: JAP, AC-3, 2 канала, 192 Кбит/сек, 48,0 КГц
Общее
Полное имя : J:\VIDEO_TS\VTS_01_1.VOB
Формат : MPEG-PS
Размер файла : 1024 Мбайт
Продолжительность : 22 м.
Режим общего битрейта : Переменный
Общий поток : 6368 Кбит/сек

Видео
Идентификатор : 224 (0xE0)
Формат : MPEG Video
Версия формата : Version 2
Профиль формата : Main@Main
Параметр BVOP формата : Да
Параметр матрицы формата : Выборочная
Параметр GOP формата : M=3, N=15
Продолжительность : 22 м.
Вид битрейта : Переменный
Битрейт : 6049 Кбит/сек
Максимальный битрейт : 7700 Кбит/сек
Ширина : 720 пикселей
Высота : 480 пикселей
Соотношение сторон : 16:9
Частота кадров : 29,970 кадров/сек
Стандарт вещания : NTSC
Цветовое пространство : YUV
Субдискретизация насыщенности : 4:2:0
Битовая глубина : 8 бит
Тип развёртки : Чересстрочная
Порядок развёртки : Нижнее поле первое
Метод сжатия : С потерями
Бит/(Пиксели*Кадры) : 0.584
Временной код первого кадра : 01:00:00;00
Оригинал временного кода : Group of pictures header
Размер потока : 973 Мбайт (95%)
Основные цвета : BT.601 NTSC
Характеристики трансфера : BT.601
Коэффициенты матрицы : BT.601

Аудио
Идентификатор : 189 (0xBD)-128 (0x80)
Формат : AC-3
Формат/Информация : Audio Coding 3
Расширение режима : CM (complete main)
Параметр Endianness формата : Big
Режим смешивания : DVD-Video
Продолжительность : 22 м.
Вид битрейта : Постоянный
Битрейт : 192 Кбит/сек
Каналы : 2 канала
Расположение каналов : Front: L R
Частота : 48,0 КГц
Битовая глубина : 16 бит
Метод сжатия : С потерями
Размер потока : 30,9 Мбайт (3%)

Меню
1. Dream and Confession
2. Confession and Straying
3. Love and Reality
4. Reality and Something I Must Protect



Трекер:  [ 29-Авг-2013 15:38 ]

  

Скачать .torrent

Размер .torrent файла 12 KB


Размер: 4.44 GB
Хэш (hash) релиза: 005c6ab4e961002e2ce161f336da38f5e55e1cb6

Торренты, похожие на Shinshou Genmukan Visions Hall Makoto Akira скачать торрент

Форум Название Автор Размер S L Добавлен
Хентай, порно и эротические мультфильмы ·· Visions Hall Makoto Akira / Shinshou Genmukan / Видения Макото Акира / Особняк грёз 2 (Chichi no Ya, Ciel) (ep.1-4 of 4) [cen] [2010г.,Anal,BDSM,Big tits,Oral,Bukkake,Group,Straight,Titfuck,Yuri,Harem,Rape,Maids,DVDRip][jap/eng] Galfimbul 829206596791 MB 0 0 1340803080

16:18

27-Июн-12

bot

Топик был перенесен в форум Хентай | С цензурой

Перенес LinGr

Хотите добавить комментарий к записи скачать торрент Shinshou Genmukan Visions Hall Makoto Akira

!Обратная связь