Скачать через торрент музыку Robyn - Best of Berlin Festival 2010 бесплатно без регистрации torrent

Если у вас наблюдаются проблемы со скриншотами, переходом по ссылками, скачиванием торрентов - проблемы в блокировщике рекламы AdBlock. #хорошегоДня!


Статистика раздачи
Размер:  3.49 GB   |    Зарегистрирован:  6 лет 9 месяцев   |    .torrent скачан:  100 раз   |   
Раздают:  1  
   
Загрузка...
 
Автор Сообщение

Солнышко

avatar Солнышко


Robyn - Best of Berlin Festival 2010

Страна: Germany
Жанр: Electropop
Продолжительность: 01.00.03
Год выпуска: 2010

Описание: Робин (англ. Robyn, урожденная Robin Miriam Carlsson род. 27 апреля 1979 г.) - шведская певица и автор песен.
Robin Miriam Carlsson или просто Robyn безумно популярна у себя на родине в Швеции. Её одноименный альбом «Robyn» завоевал немалую популярность в Британии.
Свои первые шаги в музыкальном мире Robyn начала осуществлять в 12 летнем возрасте. Она записала песню для одного популярного ТВ-шоу, а чуть позже стала одной из участниц другого. Открыла Robyn певица Meja, известная у нас благодаря хиту «All About Money». Именно она помогла подписать начинающей исполнительнице свой первый контракт с мейджором.
Прорывом певицы стали два хита «Show Me Love» and «Do You Know (What it Takes)», выпущенные в виде синглов в 1997 году.
Когда в 2004 году BMG раскритиковали новые работы Robyn, сменившей откровенный поп, на стильную электронную музыку, девушка заявила, что уходит с лейбла. Подписывать новый контракт с другим мейджером предприимчивая шведка не спешила, и спустя пару месяцев, основала собственный лейбл Konichiwa Records.
Среди продюсеров последнего альбома Robyn значатся небезызвестные шведские электронщики The Knife. Сама певица признается, что окончательно поставила крест на образе «шведской поп принцессы», и полностью окуналась в эксперименты с электронной музыкой .

01.Fembot
02.Cry When You Get Older
03.Cobrastyle
04.Dancing On My Own
05.Dancehall Queen
06.Hang With Me
07.Girl & The Robot
08.Don't Fucking Tell Me What To Do
09.Be Mine
10.Dream On
11.With Every Heartbeat
General
ID : 437
Complete name : D: \Robyn - Berlin Festival 2010 (3sat - Best of Berlin Festival 2010 - 31Oct2010)-dylwys.ts
Format : MPEG-TS
File size : 3.49 GiB
Duration : 1h 0mn
Overall bit rate : 8 313 Kbps

Video
ID : 210 (0xD2)
Menu ID : 28007 (0x6D67)
Format : MPEG Video
Format version : Version 2
Format profile : Main@Main
Format settings, Matrix : Default
Duration : 1h 0mn
Bit rate mode : Variable
Bit rate : 6 904 Kbps
Nominal bit rate : 15.0 Mbps
Width : 720 pixels
Height : 576 pixels
Display aspect ratio : 16:9
Frame rate : 25.000 fps
Standard : PAL
Colorimetry : 4:2:0
Scan type : Interlaced
Scan order : Top Field First
Bits/(Pixel*Frame) : 0.666
Stream size : 2.90 GiB (83%)

Audio #1
ID : 220 (0xDC)
Menu ID : 28007 (0x6D67)
Format : MPEG Audio
Format version : Version 1
Format profile : Layer 2
Duration : 1h 0mn
Bit rate mode : Constant
Bit rate : 256 Kbps
Channel(s) : 2 channels
Sampling rate : 48.0 KHz
Resolution : 16 bits
Video delay : 94ms
Stream size : 110 MiB (3%)
Language : German
Language, more info : Clean effects

Audio #2
ID : 221 (0xDD)
Menu ID : 28007 (0x6D67)
Format : MPEG Audio
Format version : Version 1
Format profile : Layer 2
Duration : 1h 0mn
Bit rate mode : Constant
Bit rate : 128 Kbps
Channel(s) : 1 channel
Sampling rate : 48.0 KHz
Resolution : 16 bits
Video delay : 136ms
Stream size : 55.0 MiB (2%)
Language : 2ch
Language, more info : Visual impaired commentary

Audio #3
ID : 225 (0xE1)
Menu ID : 28007 (0x6D67)
Format : AC-3
Format/Info : Audio Coding 3
Duration : 1h 0mn
Bit rate mode : Constant
Bit rate : 448 Kbps
Channel(s) : 6 channels
Channel positions : Front: L C R, Surround: L R, LFE
Sampling rate : 48.0 KHz
Video delay : 71ms
Stream size : 192 MiB (5%)
Language : German
Качество: TVRip
Контейнер: TS
Видео кодек: MPEG2
Аудио кодек: MP2, AC-3
Видео: mpeg2, 720:576i, 16:9, 6 904 Kbps, 25.000 fps
Аудио: mp2, 256 Kbps, 48.0 KHz, 2 channels
Аудио: ac3, 448 Kbps, 48.0 KHz, 6 channels


Трекер:  [ 16-Янв-2011 18:32 ]

  

Скачать .torrent

Размер .torrent файла 18 KB


Размер: 3.49 GB
Хэш (hash) релиза: 58764ba37922838af91115c7a5dacc8c6a9be1c3

bot

Топик был перенесен в форум Электронная музыка (video)

Перенес Солнышко

Хотите добавить комментарий к записи скачать торрент Robyn - Best of Berlin Festival 2010

!Обратная связь