Скачать через торрент музыку Roman Rain - Live at Strangel club, Moscow бесплатно без регистрации torrent

Если у вас наблюдаются проблемы со скриншотами, переходом по ссылками, скачиванием торрентов - проблемы в блокировщике рекламы AdBlock. #хорошегоДня!


Статистика раздачи
Размер:  1.03 GB   |    Зарегистрирован:  6 лет 9 месяцев   |    .torrent скачан:  36 раз   |   
Раздают:  1  
   
Загрузка...
 
Автор Сообщение

uzi2009

avatar uzi2009


ROMAN RAIN - Live at STRANGEL club, Moscow (01.09.2008)

Год выпуска: 2008
Жанр: Darkwave / Synth-Pop
Продолжительность: 01:39:42
Камера: [MXN]
Описание: Живое выступление маэстро декаданса ROMAN RAIN в московском клубе STRANGEL 1 сентября 2008 перед началом российского тура, а также его общение с поклонниками.
Треклист:
1. Intro "Всё выплакать с единственной мольбою" (Федерико Гарсиа Лорка)
2. Кукла
3. Я умерла
4. Here you are
5. Show me the way
6. Зеркала
7. My way
8. Отражение моё
9. All words
10. Pretense of sky
11. Глаза ангела
12. By the paradise
13. Реквием
14. Ветер мой
15. Прощание с тенью
16. Королева
17. Higher, Higher...
General
Complete name : ROMAN RAIN - Live at STRANGEL club (01.09.2008) [MXN].avi
Format : AVI
Format/Info : Audio Video Interleave
File size : 1.03 GiB
Duration : 1h 39mn
Overall bit rate : 1 476 Kbps

Video
ID : 0
Format : MPEG-4 Visual
Format profile : Simple@L3
Format settings, BVOP : Yes
Format settings, QPel : No
Format settings, GMC : No warppoints
Format settings, Matrix : Default (H.263)
Muxing mode : Packed bitstream
Codec ID : XVID
Codec ID/Hint : XviD
Duration : 1h 39mn
Bit rate : 1 274 Kbps
Width : 720 pixels
Height : 432 pixels
Display aspect ratio : 1.667
Frame rate : 25.000 fps
Resolution : 8 bits
Colorimetry : 4:2:0
Scan type : Progressive
Bits/(Pixel*Frame) : 0.164
Stream size : 908 MiB (86%)
Writing library : XviD 1.1.0 Beta1 (UTC 2005-01-16)

Audio
ID : 1
Format : MPEG Audio
Format version : Version 1
Format profile : Layer 3
Codec ID : 55
Codec ID/Hint : MP3
Duration : 1h 39mn
Bit rate mode : Constant
Bit rate : 192 Kbps
Channel(s) : 2 channels
Sampling rate : 44.1 KHz
Video delay : 26ms
Stream size : 137 MiB (13%)
Alignment : Split accross interleaves
Interleave, duration : 40 ms (1.00 video frame)
Title : Audio Stream
Writing library : LAME3.92
Качество: DVDRip
Формат: AVI
Видео кодек: XviD
Аудио кодек: mp3
Видео: Xvid 720x432 25.00fps 1 476 Kbps
Аудио: MPEG Audio Layer 3 44100Hz stereo 192kbps


Трекер:  [ 12-Янв-2011 23:16 ]

  

Скачать .torrent

Размер .torrent файла 10 KB


Размер: 1.03 GB
Хэш (hash) релиза: e814e16f0abed5e0b522a4d86208f07fa0d5d59f

bot

Топик был перенесен в форум Электронная музыка (video)

Перенес uzi2009

Хотите добавить комментарий к записи скачать торрент Roman Rain - Live at Strangel club, Moscow

!Обратная связь