Скачать через торрент музыку CJ Stone - Infinity бесплатно без регистрации torrent

Если у вас наблюдаются проблемы со скриншотами, переходом по ссылками, скачиванием торрентов - проблемы в блокировщике рекламы AdBlock. #хорошегоДня!


Статистика раздачи
Размер:  26 MB   |    Зарегистрирован:  6 лет 9 месяцев   |    .torrent скачан:  25 раз   |   
Раздают:  1  
   
Загрузка...
 
Автор Сообщение

uzi2009

avatar uzi2009


CJ Stone - Infinity

Год выпуска: 2000
Жанр: Trance
Продолжительность: 00:03:35
Качество: TVRip
Формат: AVI
Видео кодек: DivX
Аудио кодек: MP3
Видео: DivX 3, 352x288, 25.00fps, 856 Kbps
Аудио: MPEG Audio Layer 3, 44100Hz, stereo 128Kbps
General
Complete name : G:\Vidéo\CJ Stone - Infinity.avi
Format : AVI
Format/Info : Audio Video Interleave
File size : 25.6 MiB
Duration : 3mn 35s
Overall bit rate : 994 Kbps
Writing library : VirtualDub build 11583/release

Video
ID : 0
Format : MPEG-4 Visual
Codec ID : DIV3
Codec ID/Hint : DivX 3 Low
Duration : 3mn 35s
Bit rate : 856 Kbps
Width : 352 pixels
Height : 288 pixels
Display aspect ratio : 1.222
Frame rate : 25.000 fps
Resolution : 24 bits
Bits/(Pixel*Frame) : 0.338
Stream size : 22.0 MiB (86%)

Audio
ID : 1
Format : MPEG Audio
Format version : Version 1
Format profile : Layer 3
Codec ID : 55
Codec ID/Hint : MP3
Duration : 3mn 35s
Bit rate mode : Constant
Bit rate : 128 Kbps
Channel(s) : 2 channels
Sampling rate : 44.1 KHz
Resolution : 16 bits
Stream size : 3.28 MiB (13%)
Alignment : Split accross interleaves
Interleave, duration : 40 ms (1.00 video frame)
Interleave, preload duration : 461 ms


Трекер:  [ 12-Янв-2011 21:34 ]

  

Скачать .torrent

Размер .torrent файла 8 KB


Размер: 26 MB
Хэш (hash) релиза: 7b128a7336ab3211794cd6cf67f03b89dd2a9a7f

Торренты, похожие на CJ Stone - Infinity скачать торрент

Форум Название Автор Размер S L Добавлен
Электронная музыка (mp3) ·· (Progressive House) CJ Stone - Sound Of Infinity (Electronic Pleasure [SGR6028401]) WEB - 2015, MP3 (tracks), 320 kbps Galfimbul 6030236558 MB 0 0 1423471685

11:48

9-Фев-15

bot

Топик был перенесен в форум Электронная музыка (video)

Перенес uzi2009

Хотите добавить комментарий к записи скачать торрент CJ Stone - Infinity

!Обратная связь