Скачать порно через торрент Shujii no Inbou The doctors plot intrigue UnionPeer.org бесплатно онлайн HD качество

Скачать новое порно 2015, 2014 новинки через торрент UnionPeer.org

Порно торрент бесплатно ЮнионПир.орг

Если у вас наблюдаются проблемы со скриншотами, переходом по ссылками, скачиванием торрентов - проблемы в блокировщике рекламы AdBlock. #хорошегоДня!


Статистика раздачи
Размер:  3.24 GB   |    Зарегистрирован:  3 года 11 месяцев   |    .torrent скачан:  141 раз   |   
Раздают:  1  
   
Загрузка...
 
Автор Сообщение

LinGr

avatar LinGr



Shujii no Inbou / The doctor''s plot intrigue / 主治医の淫謀
Заговор врача / Волнующая интрига

Год производства: 2011 г.
Жанр: Bondage, Big tits, Oral sex, Group sex, Yuri, X-Ray, Mature
Серии: ep. 1-2 of 2
Продолжительность: 2x ~28 min
Цензура: Есть

Озвучка: Японская (Оригинальная)

Режиссер: Yoneda Mitsuhiro
Автор оригинала: Anim
Студия: vanilla, Digital Works, Y.O.U.C.

Описание RUS: Собственно говоря хентай по одноименной манге, по сюжету которой к не очень здоровому доктору и такой же озабоченной медсестре приходит на прием очередная домохозяйка, которую эта озабоченная парочка подвязывает на групповой и лесбийский секс. Ну и с этого момента в жизни этой девушки все начинает меняться, ее постоянно ждут неожиданные сцены секса в самое не ожидаемое время.

Описание ENG: My husband, Keiichirou, was struck down by illness. Mr. Noyama, our family doctor, said he would need to have a rest for a while. But he hasn''t got well though a few weeks have passed. I have now a concern about myself. Yes, it''s about sex.... It''s impossible to ask for sex to my husband. I can''t masturbate myself at home because there are my husband and daughter. I can''t talk to anyone about it.... I recently feel sexually excited when Mr. Noyama comes to my house. Is this because I''m not sexually satisfied or I suffer from some kind of illness? Oh, Mr. Noyama comes again....

Описание UKR: Власне кажучи хентай за однойменною манзі, за сюжетом якої до не дуже здорового доктору і такий же стурбованою медсестрі приходить на прийом чергова домогосподарка, яку ця заклопотана парочка підв''язує на груповий і лесбійський секс. Ну і з цього моменту в житті цієї дівчини все починає змінюватися, її постійно чекають несподівані сцени сексу в самий не очікуване час.

Информационные ссылки: AniDB - MAL - World Art - ХентайМаг

Качество видео: 2x DVD5
Формат видео: DVD Video
Видео кодек: MPEG2
Аудио кодек: AC3
Видео: 720х480, (16:9), 29,970 кадров/сек, ~ 6100 Кбит/сек, NTSC
Аудио: JAP, AC-3, 2 канала, 192 Кбит/сек, 48,0 КГц
Общее
Полное имя : J:\VIDEO_TS\VTS_01_1.VOB
Формат : MPEG-PS
Размер файла : 1024 Мбайт
Продолжительность : 21 м.
Режим общего битрейта : Переменный
Общий поток : 6510 Кбит/сек

Видео
Идентификатор : 224 (0xE0)
Формат : MPEG Video
Версия формата : Version 2
Профиль формата : Main@Main
Параметр BVOP формата : Да
Параметр матрицы формата : Выборочная
Параметр GOP формата : Variable
Продолжительность : 21 м.
Вид битрейта : Переменный
Битрейт : 6188 Кбит/сек
Максимальный битрейт : 9800 Кбит/сек
Ширина : 720 пикселей
Высота : 480 пикселей
Соотношение сторон : 16:9
Частота кадров : 29,970 кадров/сек
Стандарт вещания : NTSC
Цветовое пространство : YUV
Субдискретизация насыщенности : 4:2:0
Битовая глубина : 8 бит
Тип развёртки : Чересстрочная
Порядок развёртки : Верхнее поле первое
Метод сжатия : С потерями
Бит/(Пиксели*Кадры) : 0.597
Временной код первого кадра : 01:00:17:15
Оригинал временного кода : Group of pictures header
Размер потока : 973 Мбайт (95%)

Аудио
Идентификатор : 189 (0xBD)-128 (0x80)
Формат : AC-3
Формат/Информация : Audio Coding 3
Расширение режима : CM (complete main)
Параметр Endianness формата : Big
Режим смешивания : DVD-Video
Продолжительность : 21 м.
Вид битрейта : Постоянный
Битрейт : 192 Кбит/сек
Каналы : 2 канала
Расположение каналов : Front: L R
Частота : 48,0 КГц
Битовая глубина : 16 бит
Метод сжатия : С потерями
Размер потока : 30,2 Мбайт (3%)

Меню



Трекер:  [ 29-Авг-2013 15:38 ]

  

Скачать .torrent

Размер .torrent файла 17 KB


Размер: 3.24 GB
Хэш (hash) релиза: 33a60494e275436550b9ffd907f742c2dbe58a95

bot

Топик был перенесен в форум Хентай | С цензурой

Перенес LinGr

Хотите добавить комментарий к записи скачать торрент Shujii no Inbou The doctors plot intrigue

!Обратная связь