Скачать через торрент музыку La Ruta Del Sol - Lucianos Diary бесплатно без регистрации torrent

Если у вас наблюдаются проблемы со скриншотами, переходом по ссылками, скачиванием торрентов - проблемы в блокировщике рекламы AdBlock. #хорошегоДня!


Статистика раздачи
Размер:  668 MB   |    Зарегистрирован:  5 лет 10 месяцев   |    .torrent скачан:  37 раз   |   
Раздают:  1  
   
Загрузка...
 
Автор Сообщение

Galfimbul

avatar Galfimbul


La Ruta Del Sol - Luciano's Diary

Год выпуска: 2009
Жанр: Документальный
Продолжительность: 54:46

Режиссер: Raphaël Sibilla

Описание: Фильм, снятый во время тура Luciano по Южной Америке в январе 2009 года. Поступил в продажу вместе с альбомом Tribute To The Sun. Есть английские субтитры.

Качество: DVDRip
Формат: AVI
Видео кодек: DivX
Аудио кодек: MP3
Видео: DivX 5, 720x360, 25 fps, 1500 Kbps
Аудио: MPEG Audio Layer 3, 192 Kbps, 48000Hz, stereo

Доп. информация:
Официальный трейлер
 
GeneralComplete name : F:\La Ruta Del Sol - Luciano's Diary.aviFormat : AVIFormat/Info : Audio Video InterleaveFile size : 668 MiBDuration : 54mn 46sOverall bit rate : 1 705 Kbps

VideoID : 0Format : MPEG-4 VisualFormat profile : Simple@L1Format settings, BVOP : NoFormat settings, QPel : NoFormat settings, GMC : No warppointsFormat settings, Matrix : Default (H.263)Codec ID : DX50Codec ID/Hint : DivX 5Duration : 54mn 46sBit rate : 1 500 KbpsWidth : 720 pixelsHeight : 360 pixelsDisplay aspect ratio : 2.2:1Frame rate : 25.000 fpsResolution : 24 bitsColorimetry : 4:2:0Scan type : ProgressiveBits/(Pixel*Frame) : 0.232Stream size : 588 MiB (88%)Writing library : Lavc52.0.0

AudioID : 1Format : MPEG AudioFormat version : Version 1Format profile : Layer 3Codec ID : 55Codec ID/Hint : MP3Duration : 54mn 46sBit rate mode : ConstantBit rate : 192 KbpsChannel(s) : 2 channelsSampling rate : 48.0 KHzResolution : 16 bitsStream size : 75.2 MiB (11%)Alignment : Split accross interleavesInterleave, duration : 24 ms (0.60 video frame)Writing library : LAME3.98


Трекер:  [ 23-Ноя-2011 17:11 ]

  

Скачать .torrent

Размер .torrent файла 26 KB


Размер: 668 MB
Хэш (hash) релиза: 1eb2b10e42830aa4d5e5afc30ff95e6641d5b3f7

Еще никто не оставлял запись к записи скачать торрент La Ruta Del Sol - Lucianos Diary . Будь первым!

!Обратная связь