Скачать через торрент музыку Переписывая Бетховена Copying Beethoven бесплатно без регистрации torrent

Если у вас наблюдаются проблемы со скриншотами, переходом по ссылками, скачиванием торрентов - проблемы в блокировщике рекламы AdBlock. #хорошегоДня!


Статистика раздачи
Размер:  388 MB   |    Зарегистрирован:  3 года 11 месяцев   |    .torrent скачан:  42 раза   |   
Раздают:  1  
   
Загрузка...
 
Автор Сообщение

Polarnik

avatar Polarnik


Переписывая Бетховена | Copying Beethoven

Жанр: Score
Композитор: Antoni Lazarkiewicz, Ludwig van Beethoven
Год выпуска: 2006
Страна-производитель диска: EU
Издатель (лейбл): Decca
Номер по каталогу: 475 8176
Аудио кодек: FLAC (*.flac)
Тип рипа: tracks+.cue
Битрейт аудио: lossless
Продолжительность: 01:17:30
Наличие сканов в содержимом раздачи: да

Треклист:
01 Beethoven- Grosse Fuge in B Flat major, op. 133
02 Bethoven,Lazarkiewicz- Seid umschlungen, Millionen
03 Beethoven- Piano Sonata No.5 in C minor. op. 10 no 1
04 Beethoven- Symphony No. 9 in D minor, op. 125 ''''Choral'''' - IV Presto
05 Beethoven- Symphony No. 9 in D minor, op. 125 ''''Choral'''' - ''''O Freunde, nicht diese Toene''''
06 Beethoven- Symphony No. 9 in D minor, op. 125 ''''Choral'''' - Allegro assai
07 Beethoven- Symphony No. 9 in D minor, op. 125 ''''Choral'''' - Alla Marcia
08 Beethoven- Symphony No. 9 in D minor, op. 125 ''''Choral'''' - Andante maestoso
09 Beethoven- Symphony No. 9 in D minor, op. 125 ''''Choral'''' - Allegro energico
10 Beethoven- Symphony No. 9 in D minor, op. 125 ''''Choral'''' - Allegro ma non tano
11 Lazarkiewicz- Anna''s Etude and Variations
12 Beethoven- Variations in C on a Waltz by Diabellli, op. 120
13 Beethoven- Piano Sonata No. 32 in C minor, op. 111
14 Beethoven- String Quartet No. 9 in C major, op. 59 no. 3 ''''Razumovsky''''
Lucia Popp (soprano); Carolyn Watkinson (mezzo soprano); Peter Schreier (tenor); Karoly Schranz, Edward Dusinberre (violin); Roger Tapping (viola); Andras Fejer (cello); Vladimir Ashkenazy, Stephen Kovacevich (piano); Robert Holl (bass instrument)
Exact Audio Copy V1.0 beta 3 from 29. August 2011

EAC extraction logfile from 21. August 2013, 21:04

Beethoven/Lazarkiewicz / Copying Beethoven

Used drive : PLEXTOR DVDR PX-L890SA Adapter: 1 ID: 0

Read mode : SecureUtilize accurate stream : YesDefeat audio cache : YesMake use of C2 pointers : No

Read offset correction : 6Overread into Lead-In and Lead-Out : NoFill up missing offset samples with silence : YesDelete leading and trailing silent blocks : NoNull samples used in CRC calculations : YesUsed interface : Installed external ASPI interfaceGap handling : Appended to previous track

Used output format : User Defined EncoderSelected bitrate : 1024 kBit/sQuality : HighAdd ID3 tag : NoCommand line compressor : C:\Program Files\Exact Audio Copy\Flac\flac.exeAdditional command line options : -V -8 -T "Genre=%genre%" -T "Artist=%artist%" -T "Title=%title%" -T "Album=%albumtitle%" -T "Date=%year%" -T "Tracknumber=%tracknr%" -T "Comment=%comment%" %source%

TOC of the extracted CD

Track | Start | Length | Start sector | End sector --------------------------------------------------------- 1 | 0:00.00 | 14:32.35 | 0 | 65434 2 | 14:32.35 | 1:51.59 | 65435 | 73818 3 | 16:24.19 | 4:27.18 | 73819 | 93861 4 | 20:51.37 | 6:13.17 | 93862 | 121853 5 | 27:04.54 | 0:49.73 | 121854 | 125601 6 | 27:54.52 | 2:43.40 | 125602 | 137866 7 | 30:38.17 | 4:10.25 | 137867 | 156641 8 | 34:48.42 | 4:11.00 | 156642 | 175466 9 | 38:59.42 | 2:33.12 | 175467 | 186953 10 | 41:32.54 | 4:25.08 | 186954 | 206836 11 | 45:57.62 | 2:25.25 | 206837 | 217736 12 | 48:23.12 | 1:31.45 | 217737 | 224606 13 | 49:54.57 | 17:29.34 | 224607 | 303315 14 | 67:24.16 | 10:11.74 | 303316 | 349214

Track 1

Filename F:\torrent\Copying Beethoven_Lazarkiewicz\score\01 Beethoven- Grosse Fuge in B Flat major, op. 133.wav

Pre-gap length 0:00:02.00

Peak level 30.7 % Extraction speed 6.5 X Track quality 99.9 % Test CRC 1BBBFC3D Copy CRC 1BBBFC3D Accurately ripped (confidence 4) [0CAC8794] (AR v1) Copy OK

Track 2

Filename F:\torrent\Copying Beethoven_Lazarkiewicz\score\02 Bethoven,Lazarkiewicz- Seid umschlungen, Millionen.wav

Pre-gap length 0:00:03.54

Peak level 100.0 % Extraction speed 6.1 X Track quality 100.0 % Test CRC 1516AF8E Copy CRC 1516AF8E Accurately ripped (confidence 4) [611380A4] (AR v1) Copy OK

Track 3

Filename F:\torrent\Copying Beethoven_Lazarkiewicz\score\03 Beethoven- Piano Sonata No.5 in C minor. op. 10 no 1.wav

Pre-gap length 0:00:01.53

Peak level 50.1 % Extraction speed 6.6 X Track quality 99.9 % Test CRC B6C4DDC6 Copy CRC B6C4DDC6 Accurately ripped (confidence 4) [7A163278] (AR v1) Copy OK

Track 4

Filename F:\torrent\Copying Beethoven_Lazarkiewicz\score\04 Beethoven- Symphony No. 9 in D minor, op. 125 ''''Choral'''' - IV Presto.wav

Pre-gap length 0:00:02.35

Peak level 74.1 % Extraction speed 8.2 X Track quality 100.0 % Test CRC 1E9B18A3 Copy CRC 1E9B18A3 Accurately ripped (confidence 4) [F4FB7C5F] (AR v1) Copy OK

Track 5

Filename F:\torrent\Copying Beethoven_Lazarkiewicz\score\05 Beethoven- Symphony No. 9 in D minor, op. 125 ''''Choral'''' - ''''O Freunde, nicht diese Toene''''.wav

Peak level 68.9 % Extraction speed 5.4 X Track quality 100.0 % Test CRC 2189B47C Copy CRC 2189B47C Accurately ripped (confidence 4) [61E80B32] (AR v1) Copy OK

Track 6

Filename F:\torrent\Copying Beethoven_Lazarkiewicz\score\06 Beethoven- Symphony No. 9 in D minor, op. 125 ''''Choral'''' - Allegro assai.wav

Peak level 97.7 % Extraction speed 7.6 X Track quality 100.0 % Test CRC 32DAC0E5 Copy CRC 32DAC0E5 Accurately ripped (confidence 4) [962BB207] (AR v1) Copy OK

Track 7

Filename F:\torrent\Copying Beethoven_Lazarkiewicz\score\07 Beethoven- Symphony No. 9 in D minor, op. 125 ''''Choral'''' - Alla Marcia.wav

Peak level 97.7 % Extraction speed 7.5 X Track quality 99.9 % Test CRC E1E185B8 Copy CRC E1E185B8 Accurately ripped (confidence 4) [9B304796] (AR v1) Copy OK

Track 8

Filename F:\torrent\Copying Beethoven_Lazarkiewicz\score\08 Beethoven- Symphony No. 9 in D minor, op. 125 ''''Choral'''' - Andante maestoso.wav

Peak level 97.7 % Extraction speed 7.9 X Track quality 99.9 % Test CRC E8EF28AC Copy CRC E8EF28AC Accurately ripped (confidence 4) [4C434DD7] (AR v1) Copy OK

Track 9

Filename F:\torrent\Copying Beethoven_Lazarkiewicz\score\09 Beethoven- Symphony No. 9 in D minor, op. 125 ''''Choral'''' - Allegro energico.wav

Peak level 97.7 % Extraction speed 8.3 X Track quality 100.0 % Test CRC 1F2B068E Copy CRC 1F2B068E Accurately ripped (confidence 4) [1565C2A1] (AR v1) Copy OK

Track 10

Filename F:\torrent\Copying Beethoven_Lazarkiewicz\score\10 Beethoven- Symphony No. 9 in D minor, op. 125 ''''Choral'''' - Allegro ma non tano.wav

Peak level 97.7 % Extraction speed 9.5 X Track quality 100.0 % Test CRC 99E0BA35 Copy CRC 99E0BA35 Accurately ripped (confidence 4) [3DB629EF] (AR v1) Copy OK

Track 11

Filename F:\torrent\Copying Beethoven_Lazarkiewicz\score\11 Lazarkiewicz- Anna''s Etude and Variations.wav

Pre-gap length 0:00:03.71

Peak level 21.1 % Extraction speed 8.5 X Track quality 100.0 % Test CRC 716222CC Copy CRC 716222CC Accurately ripped (confidence 4) [E280B296] (AR v1) Copy OK

Track 12

Filename F:\torrent\Copying Beethoven_Lazarkiewicz\score\12 Beethoven- Variations in C on a Waltz by Diabellli, op. 120.wav

Pre-gap length 0:00:05.08

Peak level 12.7 % Extraction speed 6.0 X Track quality 99.8 % Test CRC FCDA6914 Copy CRC FCDA6914 Accurately ripped (confidence 4) [7EDCD8EA] (AR v1) Copy OK

Track 13

Filename F:\torrent\Copying Beethoven_Lazarkiewicz\score\13 Beethoven- Piano Sonata No. 32 in C minor, op. 111.wav

Pre-gap length 0:00:04.26

Peak level 47.1 % Extraction speed 10.9 X Track quality 99.9 % Test CRC 02F29371 Copy CRC 02F29371 Accurately ripped (confidence 5) [9978D02A] (AR v1) Copy OK

Track 14

Filename F:\torrent\Copying Beethoven_Lazarkiewicz\score\14 Beethoven- String Quartet No. 9 in C major, op. 59 no. 3 ''''Razumovsky''''.wav

Pre-gap length 0:00:04.70

Peak level 30.5 % Extraction speed 11.9 X Track quality 100.0 % Test CRC E8FA1BFB Copy CRC E8FA1BFB Accurately ripped (confidence 4) [A5B33307] (AR v1) Copy OK

All tracks accurately ripped

No errors occurred

End of status report

==== Log checksum 8E7A0D2EE367408B4491BBDBEAA377ABC4D0720872F4C887AE24FC0F54758AD5 ====
REM GENRE ClassicalREM DATE 2006REM DISCID DE12300EREM COMMENT "ExactAudioCopy v1.0b3"CATALOG 0028947581765PERFORMER "Beethoven/Lazarkiewicz"TITLE "Copying Beethoven"FILE "01 Beethoven- Grosse Fuge in B Flat major, op. 133.wav" WAVE TRACK 01 AUDIO TITLE "Beethoven: Grosse Fuge in B Flat major, op. 133" PERFORMER "Beethoven/Lazarkiewicz" ISRC GBBBA0401080 INDEX 01 00:00:00 TRACK 02 AUDIO TITLE "Bethoven/Lazarkiewicz: Seid umschlungen, Millionen" PERFORMER "Beethoven/Lazarkiewicz" ISRC GBBBA0600320 INDEX 00 14:28:56FILE "02 Bethoven,Lazarkiewicz- Seid umschlungen, Millionen.wav" WAVE INDEX 01 00:00:00 TRACK 03 AUDIO TITLE "Beethoven: Piano Sonata No.5 in C minor. op. 10 no 1" PERFORMER "Beethoven/Lazarkiewicz" ISRC GBF077610183 INDEX 00 01:50:06FILE "03 Beethoven- Piano Sonata No.5 in C minor. op. 10 no 1.wav" WAVE INDEX 01 00:00:00 TRACK 04 AUDIO TITLE "Beethoven: Symphony No. 9 in D minor, op. 125 ''Choral'' - IV Presto" PERFORMER "Beethoven/Lazarkiewicz" ISRC NLA508604404 INDEX 00 04:24:58FILE "04 Beethoven- Symphony No. 9 in D minor, op. 125 ''''Choral'''' - IV Presto.wav" WAVE INDEX 01 00:00:00FILE "05 Beethoven- Symphony No. 9 in D minor, op. 125 ''''Choral'''' - ''''O Freunde, nicht diese Toene''''.wav" WAVE TRACK 05 AUDIO TITLE "Beethoven: Symphony No. 9 in D minor, op. 125 ''Choral'' - ''O Freunde, nicht di..." PERFORMER "Beethoven/Lazarkiewicz" ISRC NLA508604405 INDEX 01 00:00:00FILE "06 Beethoven- Symphony No. 9 in D minor, op. 125 ''''Choral'''' - Allegro assai.wav" WAVE TRACK 06 AUDIO TITLE "Beethoven: Symphony No. 9 in D minor, op. 125 ''Choral'' - Allegro assai" PERFORMER "Beethoven/Lazarkiewicz" ISRC NLA508604406 INDEX 01 00:00:00FILE "07 Beethoven- Symphony No. 9 in D minor, op. 125 ''''Choral'''' - Alla Marcia.wav" WAVE TRACK 07 AUDIO TITLE "Beethoven: Symphony No. 9 in D minor, op. 125 ''Choral'' - Alla Marcia" PERFORMER "Beethoven/Lazarkiewicz" ISRC NLA508604407 INDEX 01 00:00:00FILE "08 Beethoven- Symphony No. 9 in D minor, op. 125 ''''Choral'''' - Andante maestoso.wav" WAVE TRACK 08 AUDIO TITLE "Beethoven: Symphony No. 9 in D minor, op. 125 ''Choral'' - Andante maestoso" PERFORMER "Beethoven/Lazarkiewicz" ISRC NLA508604408 INDEX 01 00:00:00FILE "09 Beethoven- Symphony No. 9 in D minor, op. 125 ''''Choral'''' - Allegro energico.wav" WAVE TRACK 09 AUDIO TITLE "Beethoven: Symphony No. 9 in D minor, op. 125 ''Choral'' - Allegro energico" PERFORMER "Beethoven/Lazarkiewicz" ISRC NLA508604409 INDEX 01 00:00:00FILE "10 Beethoven- Symphony No. 9 in D minor, op. 125 ''''Choral'''' - Allegro ma non tano.wav" WAVE TRACK 10 AUDIO TITLE "Beethoven: Symphony No. 9 in D minor, op. 125 ''Choral'' - Allegro ma non tano" PERFORMER "Beethoven/Lazarkiewicz" ISRC NLA508604410 INDEX 01 00:00:00 TRACK 11 AUDIO TITLE "Lazarkiewicz: Anna''s Etude and Variations" PERFORMER "Beethoven/Lazarkiewicz" ISRC GBBBA0600330 INDEX 00 04:21:12FILE "11 Lazarkiewicz- Anna''s Etude and Variations.wav" WAVE INDEX 01 00:00:00 TRACK 12 AUDIO TITLE "Beethoven: Variations in C on a Waltz by Diabellli, op. 120" PERFORMER "Beethoven/Lazarkiewicz" ISRC NLA506800504 INDEX 00 02:20:17FILE "12 Beethoven- Variations in C on a Waltz by Diabellli, op. 120.wav" WAVE INDEX 01 00:00:00 TRACK 13 AUDIO TITLE "Beethoven: Piano Sonata No. 32 in C minor, op. 111" PERFORMER "Beethoven/Lazarkiewicz" ISRC GBF077110042 INDEX 00 01:27:19FILE "13 Beethoven- Piano Sonata No. 32 in C minor, op. 111.wav" WAVE INDEX 01 00:00:00 TRACK 14 AUDIO TITLE "Beethoven: String Quartet No. 9 in C major, op. 59 no. 3 ''Razumovsky''" PERFORMER "Beethoven/Lazarkiewicz" ISRC GBBBB0107014 INDEX 00 17:24:39FILE "14 Beethoven- String Quartet No. 9 in C major, op. 59 no. 3 ''''Razumovsky''''.wav" WAVE INDEX 01 00:00:00
AUDIOCHECKER v2.0 beta (build 457) - by Dester - opdester@freemail.hu~~~~~~~~~~~~~~~~~~~~~~~~~~~~~~~~~~-=== НЕ РЕДАКТИРУЙТЕ ЭТОТ ФАЙЛ! ===-

Путь: ...\score

01 -=- 01 Beethoven- Grosse Fuge in B Flat major, op. 133.flac -=- CDDA (100%)02 -=- 02 Bethoven,Lazarkiewicz- Seid umschlungen, Millionen.flac -=- CDDA (100%)03 -=- 03 Beethoven- Piano Sonata No.5 in C minor. op. 10 no 1.flac -=- CDDA (99%)04 -=- 04 Beethoven- Symphony No. 9 in D minor, op. 125 ''''Choral'''' - IV Presto.flac -=- CDDA (100%)05 -=- 05 Beethoven- Symphony No. 9 in D minor, op. 125 ''''Choral'''' - ''''O Freunde, nicht diese Toene''''.flac -=- CDDA (100%)06 -=- 06 Beethoven- Symphony No. 9 in D minor, op. 125 ''''Choral'''' - Allegro assai.flac -=- CDDA (100%)07 -=- 07 Beethoven- Symphony No. 9 in D minor, op. 125 ''''Choral'''' - Alla Marcia.flac -=- CDDA (99%)08 -=- 08 Beethoven- Symphony No. 9 in D minor, op. 125 ''''Choral'''' - Andante maestoso.flac -=- CDDA (100%)09 -=- 09 Beethoven- Symphony No. 9 in D minor, op. 125 ''''Choral'''' - Allegro energico.flac -=- CDDA (100%)10 -=- 10 Beethoven- Symphony No. 9 in D minor, op. 125 ''''Choral'''' - Allegro ma non tano.flac -=- CDDA (100%)11 -=- 11 Lazarkiewicz- Anna''s Etude and Variations.flac -=- CDDA (43%)12 -=- 12 Beethoven- Variations in C on a Waltz by Diabellli, op. 120.flac -=- CDDA (99%)13 -=- 13 Beethoven- Piano Sonata No. 32 in C minor, op. 111.flac -=- CDDA (100%)14 -=- 14 Beethoven- String Quartet No. 9 in C major, op. 59 no. 3 ''''Razumovsky''''.flac -=- CDDA (100%)

Сводка 95,71% CDDA

194202820


Трекер:  [ 25-Сен-2013 08:32 ]

  

Скачать .torrent

Размер .torrent файла 17 KB


Размер: 388 MB
Хэш (hash) релиза: 830df39237bf5bf3eaa86834280196cb86d7e82f

Еще никто не оставлял запись к записи скачать торрент Переписывая Бетховена Copying Beethoven . Будь первым!

!Обратная связь