Скачать через торрент музыку Вперёд, путешественник Now, Voyager бесплатно без регистрации torrent

Если у вас наблюдаются проблемы со скриншотами, переходом по ссылками, скачиванием торрентов - проблемы в блокировщике рекламы AdBlock. #хорошегоДня!


Статистика раздачи
Размер:  299 MB   |    Зарегистрирован:  4 года   |    .torrent скачан:  25 раз   |   
Раздают:  1  
   
Загрузка...
 
Автор Сообщение

Polarnik

avatar Polarnik


Вперёд, путешественник / Now, Voyager

Жанр: Score
Композитор: Max Steiner
Год выпуска диска: 2011
Год выпуска фильма: 1942
Страна-производитель диска: США
Издатель (лейбл): RCA Red Seal
Номер по каталогу: 88697 81270 2
Аудиокодек: FLAC (*.flac)
Тип рипа: tracks+.cue
Битрейт аудио: lossless
Продолжительность: 53:07
Наличие сканов в содержимом раздачи: нет

Треклист:
01. Now, Voyager (05:51)
Warner Bros. Fanfare and Main Title; Love Scene and Finale
02. King Kong (07:16)
The Forgotten Island; Natives; Sacrificial Dance; The Gate of Kong; Kong in New York
03. Saratoga Trunk (02:30)
As Long As I Live
04. The Charge of the Light Brigade (02:37)
Forward the Light Brigade
05. Four Wives (08:06)
Symphonie Moderne
06. The Big Sleep (07:03)
Main Title; Marlowe; Bookshop; Murder; Chase; Love Theme and Finale
07. Johnny Belinda (05:05)
Suite
08. Since You Went Away (01:25)
Main Title
09. The Informer (04:33)
Main Title; Love Scene; Sancta Maria
10. The Fountainhead (08:07)
Main Title (Roark''s Theme); Dominique''s Theme; The Quarry; Construction - Enright House; Finale - The Wynand Building
Exact Audio Copy V1.0 beta 3 from 29. August 2011

EAC extraction logfile from 22. August 2013, 21:55

Max Steiner / Now, Voyager

Used drive : Optiarc DVD RW AD-7173A Adapter: 2 ID: 0

Read mode : SecureUtilize accurate stream : YesDefeat audio cache : YesMake use of C2 pointers : No

Read offset correction : 48Overread into Lead-In and Lead-Out : NoFill up missing offset samples with silence : YesDelete leading and trailing silent blocks : NoNull samples used in CRC calculations : YesUsed interface : Native Win32 interface for Win NT & 2000Gap handling : Appended to previous track

Used output format : User Defined EncoderSelected bitrate : 128 kBit/sQuality : HighAdd ID3 tag : NoCommand line compressor : I:\Program Files\Exact Audio Copy v1beta3\Flac\flac.exeAdditional command line options : -V -8 -T "Genre=%genre%" -T "Artist=%artist%" -T "Title=%title%" -T "Album=%albumtitle%" -T "Date=%year%" -T "Tracknumber=%tracknr%" -T "Comment=%comment%" %source%

TOC of the extracted CD

Track | Start | Length | Start sector | End sector --------------------------------------------------------- 1 | 0:00.00 | 5:55.48 | 0 | 26672 2 | 5:55.48 | 7:21.02 | 26673 | 59749 3 | 13:16.50 | 2:34.49 | 59750 | 71348 4 | 15:51.24 | 2:40.11 | 71349 | 83359 5 | 18:31.35 | 8:12.19 | 83360 | 120278 6 | 26:43.54 | 7:05.74 | 120279 | 152227 7 | 33:49.53 | 5:09.02 | 152228 | 175404 8 | 38:58.55 | 1:27.61 | 175405 | 181990 9 | 40:26.41 | 4:35.27 | 181991 | 202642 10 | 45:01.68 | 8:08.72 | 202643 | 239314

Track 1

Filename I:\Program Files\Exact Audio Copy v1beta3\Atrox777 CD rips\Max Steiner - Now, Voyager (2011) [FLAC]\01. Now, Voyager.wav

Pre-gap length 0:00:02.00

Peak level 95.6 % Extraction speed 1.4 X Track quality 100.0 % Test CRC C4C0E11D Copy CRC C4C0E11D Accurately ripped (confidence 2) [1548B496] (AR v1) Copy OK

Track 2

Filename I:\Program Files\Exact Audio Copy v1beta3\Atrox777 CD rips\Max Steiner - Now, Voyager (2011) [FLAC]\02. King Kong.wav

Pre-gap length 0:00:03.01

Peak level 96.9 % Extraction speed 1.6 X Track quality 100.0 % Test CRC 9A8ED6BD Copy CRC 9A8ED6BD Accurately ripped (confidence 2) [446DCD25] (AR v1) Copy OK

Track 3

Filename I:\Program Files\Exact Audio Copy v1beta3\Atrox777 CD rips\Max Steiner - Now, Voyager (2011) [FLAC]\03. Saratoga Trunk.wav

Pre-gap length 0:00:02.67

Peak level 74.6 % Extraction speed 1.5 X Track quality 100.0 % Test CRC FF01A3A8 Copy CRC FF01A3A8 Accurately ripped (confidence 2) [0A163A0C] (AR v1) Copy OK

Track 4

Filename I:\Program Files\Exact Audio Copy v1beta3\Atrox777 CD rips\Max Steiner - Now, Voyager (2011) [FLAC]\04. The Charge of the Light Brigade.wav

Pre-gap length 0:00:03.06

Peak level 100.0 % Extraction speed 1.6 X Track quality 100.0 % Test CRC D1143E14 Copy CRC D1143E14 Accurately ripped (confidence 2) [DF39597F] (AR v1) Copy OK

Track 5

Filename I:\Program Files\Exact Audio Copy v1beta3\Atrox777 CD rips\Max Steiner - Now, Voyager (2011) [FLAC]\05. Four Wives.wav

Pre-gap length 0:00:02.61

Peak level 90.2 % Extraction speed 2.0 X Track quality 100.0 % Test CRC 1176DAF4 Copy CRC 1176DAF4 Accurately ripped (confidence 2) [80570A18] (AR v1) Copy OK

Track 6

Filename I:\Program Files\Exact Audio Copy v1beta3\Atrox777 CD rips\Max Steiner - Now, Voyager (2011) [FLAC]\06. The Big Sleep.wav

Pre-gap length 0:00:02.65

Peak level 76.4 % Extraction speed 2.1 X Track quality 100.0 % Test CRC 51D804E7 Copy CRC 51D804E7 Accurately ripped (confidence 2) [7220D693] (AR v1) Copy OK

Track 7

Filename I:\Program Files\Exact Audio Copy v1beta3\Atrox777 CD rips\Max Steiner - Now, Voyager (2011) [FLAC]\07. Johnny Belinda.wav

Pre-gap length 0:00:01.00

Peak level 90.6 % Extraction speed 2.2 X Track quality 100.0 % Test CRC 8D8A0722 Copy CRC 8D8A0722 Accurately ripped (confidence 2) [2456C072] (AR v1) Copy OK

Track 8

Filename I:\Program Files\Exact Audio Copy v1beta3\Atrox777 CD rips\Max Steiner - Now, Voyager (2011) [FLAC]\08. Since You Went Away.wav

Pre-gap length 0:00:02.13

Peak level 85.8 % Extraction speed 1.7 X Track quality 100.0 % Test CRC F1E391FA Copy CRC F1E391FA Accurately ripped (confidence 2) [BCD8F663] (AR v1) Copy OK

Track 9

Filename I:\Program Files\Exact Audio Copy v1beta3\Atrox777 CD rips\Max Steiner - Now, Voyager (2011) [FLAC]\09. The Informer.wav

Pre-gap length 0:00:02.72

Peak level 82.5 % Extraction speed 2.3 X Track quality 100.0 % Test CRC 118A0DA8 Copy CRC 118A0DA8 Accurately ripped (confidence 2) [7EE6507A] (AR v1) Copy OK

Track 10

Filename I:\Program Files\Exact Audio Copy v1beta3\Atrox777 CD rips\Max Steiner - Now, Voyager (2011) [FLAC]\10. The Fountainhead.wav

Pre-gap length 0:00:02.16

Peak level 66.5 % Extraction speed 2.6 X Track quality 100.0 % Test CRC 51B0FC5A Copy CRC 51B0FC5A Accurately ripped (confidence 2) [8B1C0383] (AR v1) Copy OK

All tracks accurately ripped

No errors occurred

End of status report

==== Log checksum 0BC340BB71366F2F8C9CE455CEF343BC96AE40901C5C55A26A96C1D4E5021F35 ====
REM GENRE SoundtrackREM DATE 2011REM DISCID 770C760AREM COMMENT "ExactAudioCopy v1.0b3"PERFORMER "Max Steiner"TITLE "Now, Voyager"FILE "01. Now, Voyager.wav" WAVE TRACK 01 AUDIO TITLE "Now, Voyager" PERFORMER "Max Steiner" INDEX 01 00:00:00 TRACK 02 AUDIO TITLE "King Kong" PERFORMER "Max Steiner" INDEX 00 05:52:47FILE "02. King Kong.wav" WAVE INDEX 01 00:00:00 TRACK 03 AUDIO TITLE "Saratoga Trunk" PERFORMER "Max Steiner" INDEX 00 07:18:10FILE "03. Saratoga Trunk.wav" WAVE INDEX 01 00:00:00 TRACK 04 AUDIO TITLE "The Charge of the Light Brigade" PERFORMER "Max Steiner" INDEX 00 02:31:43FILE "04. The Charge of the Light Brigade.wav" WAVE INDEX 01 00:00:00 TRACK 05 AUDIO TITLE "Four Wives" PERFORMER "Max Steiner" INDEX 00 02:37:25FILE "05. Four Wives.wav" WAVE INDEX 01 00:00:00 TRACK 06 AUDIO TITLE "The Big Sleep" PERFORMER "Max Steiner" INDEX 00 08:09:29FILE "06. The Big Sleep.wav" WAVE INDEX 01 00:00:00 TRACK 07 AUDIO TITLE "Johnny Belinda" PERFORMER "Max Steiner" INDEX 00 07:04:74FILE "07. Johnny Belinda.wav" WAVE INDEX 01 00:00:00 TRACK 08 AUDIO TITLE "Since You Went Away" PERFORMER "Max Steiner" INDEX 00 05:06:64FILE "08. Since You Went Away.wav" WAVE INDEX 01 00:00:00 TRACK 09 AUDIO TITLE "The Informer" PERFORMER "Max Steiner" INDEX 00 01:24:64FILE "09. The Informer.wav" WAVE INDEX 01 00:00:00 TRACK 10 AUDIO TITLE "The Fountainhead" PERFORMER "Max Steiner" INDEX 00 04:33:11FILE "10. The Fountainhead.wav" WAVE INDEX 01 00:00:00
Started at: воскресенье, 25. 08. 2013. - 0:35.41

10 files found

01 -===- C:\!_TORRENT\Max Steiner - Now, Voyager (2011) [FLAC]\01. Now, Voyager.flac Extracted successfully Conclusion: This track looks like CDDA with probability 100% Tempfile successfully deleted.

02 -===- C:\!_TORRENT\Max Steiner - Now, Voyager (2011) [FLAC]\02. King Kong.flac Extracted successfully Conclusion: This track looks like CDDA with probability 100% Tempfile successfully deleted.

03 -===- C:\!_TORRENT\Max Steiner - Now, Voyager (2011) [FLAC]\03. Saratoga Trunk.flac Extracted successfully Conclusion: This track looks like CDDA with probability 100% Tempfile successfully deleted.

04 -===- C:\!_TORRENT\Max Steiner - Now, Voyager (2011) [FLAC]\04. The Charge of the Light Brigade.flac Extracted successfully Conclusion: This track looks like CDDA with probability 100% Tempfile successfully deleted.

05 -===- C:\!_TORRENT\Max Steiner - Now, Voyager (2011) [FLAC]\05. Four Wives.flac Extracted successfully Conclusion: This track looks like CDDA with probability 100% Tempfile successfully deleted.

06 -===- C:\!_TORRENT\Max Steiner - Now, Voyager (2011) [FLAC]\06. The Big Sleep.flac Extracted successfully Conclusion: This track looks like CDDA with probability 100% Tempfile successfully deleted.

07 -===- C:\!_TORRENT\Max Steiner - Now, Voyager (2011) [FLAC]\07. Johnny Belinda.flac Extracted successfully Conclusion: This track looks like CDDA with probability 99% Tempfile successfully deleted.

08 -===- C:\!_TORRENT\Max Steiner - Now, Voyager (2011) [FLAC]\08. Since You Went Away.flac Extracted successfully Conclusion: This track looks like CDDA with probability 100% Tempfile successfully deleted.

09 -===- C:\!_TORRENT\Max Steiner - Now, Voyager (2011) [FLAC]\09. The Informer.flac Extracted successfully Conclusion: This track looks like CDDA with probability 100% Tempfile successfully deleted.

10 -===- C:\!_TORRENT\Max Steiner - Now, Voyager (2011) [FLAC]\10. The Fountainhead.flac Extracted successfully Conclusion: This track looks like CDDA with probability 100% Tempfile successfully deleted.

Finished at: воскресенье, 25. 08. 2013. - 0:41.27 (operation time: 0:05.46)


Трекер:  [ 25-Сен-2013 08:33 ]

  

Скачать .torrent

Размер .torrent файла 13 KB


Размер: 299 MB
Хэш (hash) релиза: c8ff0ad44640206a8778810dd5f8e6f21122b8e7

Торренты, похожие на Вперёд, путешественник Now, Voyager скачать торрент

Форум Название Автор Размер S L Добавлен
Саундтреки к фильмам и мультфильмам (mp3) ·· (Score) Вперёд, путешественник / Now, Voyager (by Max Steiner) - 2011 (1942), MP3, 320 kbps Galfimbul 127685709122 MB 0 0 1377376838

23:40

24-Авг-13

Еще никто не оставлял запись к записи скачать торрент Вперёд, путешественник Now, Voyager . Будь первым!

!Обратная связь