Скачать через торрент музыку Rob Dougan - Furious Angel бесплатно без регистрации torrent

Если у вас наблюдаются проблемы со скриншотами, переходом по ссылками, скачиванием торрентов - проблемы в блокировщике рекламы AdBlock. #хорошегоДня!


Статистика раздачи
Размер:  134 MB   |    Зарегистрирован:  5 лет 11 месяцев   |    .torrent скачан:  35 раз   |   
Раздают:  1  
   
Загрузка...
 
Автор Сообщение

uzi2009

avatar uzi2009


Rob Dougan - Furious Angel

Год выпуска: 2002
Жанр: Electronic, Symphony
Страна: Австралия
Продолжительность: 00:03:56

Описание: Клип Роба Дугана "Furious Angel" 2002 года.

Доп. информация: Страничка Роба Дугана в Википедии

Качество: SATRip
Формат: MPEG-PS
Видео кодек: MPEG2
Аудио кодек: MPEG Audio
Видео: MPEG2 Video 720x576 (4:3) 25.00fps 4380kbps
Аудио: MPEG Audio 48000Hz stereo 256kbps
General
Complete name : K:\РАЗДАЧИ\Clips\Rob Dougan - Furious Angel.VOB
Format : MPEG-PS
File size : 134 MiB
Duration : 3mn 56s
Overall bit rate : 4 770 Kbps

Video
ID : 224 (0xE0)
Format : MPEG Video
Format version : Version 2
Format profile : Main@Main
Format settings, Matrix : Default
Duration : 3mn 56s
Bit rate mode : Constant
Bit rate : 4 325 Kbps
Nominal bit rate : 4 380 Kbps
Width : 720 pixels
Height : 576 pixels
Display aspect ratio : 4:3
Frame rate : 25.000 fps
Standard : PAL
Colorimetry : 4:2:0
Scan type : Interlaced
Scan order : Top Field First
Bits/(Pixel*Frame) : 0.417
Stream size : 122 MiB (91%)

Audio
ID : 192 (0xC0)
Format : MPEG Audio
Format version : Version 1
Format profile : Layer 2
Duration : 3mn 56s
Bit rate mode : Constant
Bit rate : 256 Kbps
Channel(s) : 2 channels
Sampling rate : 48.0 KHz
Resolution : 16 bits
Video delay : -488ms
Stream size : 7.20 MiB (5%)

Menu


Трекер:  [ 04-Ноя-2011 14:42 ]

  

Скачать .torrent

Размер .torrent файла 11 KB


Размер: 134 MB
Хэш (hash) релиза: a436a3261f12632282c9288ae58377f83c22917e

Торренты, похожие на Rob Dougan - Furious Angel скачать торрент

Форум Название Автор Размер S L Добавлен
Электронная музыка (video) ·· Rob Dougan - Furious Angel [2003 г., Electronic, Symphony, TVRip] Galfimbul 4617216044 MB 0 0 1294846365

18:32

12-Янв-11

Электронная музыка (video) ·· Rob Dougan - 2X Music Videos (Clubbed To Death, Furious Angels) [2002-2003 г., Electronic, Classical, DVD-VOB] Galfimbul 441522176421 MB 0 0 1294845572

18:19

12-Янв-11

bot

Топик был перенесен в форум Электронная музыка (video)

Перенес uzi2009

Хотите добавить комментарий к записи скачать торрент Rob Dougan - Furious Angel

!Обратная связь