Скачать через торрент музыку DJ Smash feat. Наташа - Самолёт бесплатно без регистрации torrent

Если у вас наблюдаются проблемы со скриншотами, переходом по ссылками, скачиванием торрентов - проблемы в блокировщике рекламы AdBlock. #хорошегоДня!


Статистика раздачи
Размер:  40 MB   |    Зарегистрирован:  5 лет 10 месяцев   |    .torrent скачан:  35 раз   |   
Раздают:  1  
   
Загрузка...
 
Автор Сообщение

Galfimbul

avatar Galfimbul


DJ Smash feat. Наташа - Самолёт (2010)

Год выпуска: 2010
Жанр: Dance, House
Продолжительность: 04:12

Качество: WebRip
Формат: Avi
Видео кодек: DivX 5
Аудио кодек: MP3
Видео: DivX 5 480x360 25.00fps 1190 Kbps
Аудио: MP3 44100Hz stereo 128Kbps
C:\DJ Smash - Самолет (2010)\DJ Smash - Самолет (2010).avi
General
Complete name : C:\DJ Smash - Самолет (2010)\DJ Smash - Самолет (2010).avi
Format : AVI
Format/Info : Audio Video Interleave
File size : 40.0 MiB
Duration : 4mn 12s
Overall bit rate : 1 328 Kbps
Writing application : Lavf52.46.0
Video #0
ID : 0
Format : MPEG-4 Visual
Format profile : Simple@L1
Format settings, BVOP : No
Format settings, QPel : No
Format settings, GMC : No warppoints
Format settings, Matrix : Default (H.263)
Codec ID : DX50
Codec ID/Hint : DivX 5
Duration : 4mn 12s
Bit rate : 1 190 Kbps
Width : 480 pixels
Height : 360 pixels
Display aspect ratio : 4:3
Frame rate : 25.000 fps
Resolution : 24 bits
Colorimetry : 4:2:0
Scan type : Progressive
Bits/(Pixel*Frame) : 0.275
Stream size : 35.7 MiB (89%)
Writing library : Lavc52.45.0
Audio #1
ID : 1
Format : MPEG Audio
Format version : Version 1
Format profile : Layer 3
Codec ID : 55
Codec ID/Hint : MP3
Duration : 4mn 12s
Bit rate mode : Constant
Bit rate : 128 Kbps
Channel(s) : 2 channels
Sampling rate : 44.1 KHz
Resolution : 16 bits
Stream size : 3.85 MiB (10%)
Alignment : Aligned on interleaves
Interleave, duration : 26 ms (0.65 video frame)
Writing library : LAME3.98.2


Трекер:  [ 23-Ноя-2011 21:24 ]

  

Скачать .torrent

Размер .torrent файла 25 KB


Размер: 40 MB
Хэш (hash) релиза: e8d1ec4a72522ffdff6517421792eaa47449bf52

Торренты, похожие на DJ Smash feat. Наташа - Самолёт скачать торрент

Форум Название Автор Размер S L Добавлен
Электронная музыка (video) ·· DJ Smash feat. Наташа - Самолет (Павел Худяков) [2010 г., Dance, House, SATRip] Galfimbul 9340518889 MB 0 0 1294845546

18:19

12-Янв-11

Еще никто не оставлял запись к записи скачать торрент DJ Smash feat. Наташа - Самолёт . Будь первым!

!Обратная связь