Скачать через торрент музыку Декстер Правосудие Декстера бесплатно без регистрации torrent

Если у вас наблюдаются проблемы со скриншотами, переходом по ссылками, скачиванием торрентов - проблемы в блокировщике рекламы AdBlock. #хорошегоДня!


Статистика раздачи
Размер:  365 MB   |    Зарегистрирован:  4 года   |    .torrent скачан:  31 раз   |   
Раздают:  1  
   
Загрузка...
 
Автор Сообщение

Polarnik

avatar Polarnik


Декстер / Правосудие Декстера / Dexter

Жанр: Score
Композитор: Daniel Licht & VA
Год выпуска диска: 2013
Страна-производитель диска: USA
Издатель (лейбл): Milan Records
Номер по каталогу: M2-36640

Аудиокодек: FLAC (*.flac)
Тип рипа: tracks+.cue
Битрейт аудио: lossless
Продолжительность: 59:49

Источник: what.cd
Наличие сканов в содержимом раздачи: да

Треклист:
01. Rolfe Kent - Dexter Main Title (1:43)
03. The Spanish Harlem Orchestra - Sacala Bailar (6:13)
04. Patato - Desde El Fondo Del Rio (7:14)
06. The Kluba - Esta Noche No Pares (3:31)
07. Sonya Belousova - Blood Theme for Piano (3:23)
08. Daniel Licht - What Are You? / Crazy (2:27)
09. Daniel Licht - I Enjoy Killing / The Hitman (2:53)
10. Daniel Licht - Argentina (2:04)
11. Daniel Licht - Dex Kills Spelz (2:38)
12. Daniel Licht - About Lumen / Isaac''s Sneak Kill (3:56)
13. Daniel Licht - He''s Gone (1:44)
14. Daniel Licht - Special / Hannah Talks (3:32)
15. Daniel Licht - Louis Dies (2:07)
16. Daniel Licht - Isaac Is Done (1:27)
17. Daniel Licht - Post Office (0:47)
18. Daniel Licht - No Mistakes / Dex Kisses Hannah (2:03)
19. Daniel Licht - Unsafe for Kids (1:31)
20. Daniel Licht - Banjo The Dog / I Blinked (2:20)
21. Daniel Licht - The Future (1:37)
22. Daniel Licht - In Love With You (2:31)
23. Daniel Licht - Pancakes / Season Seven End (4:08)
Exact Audio Copy V1.0 beta 3 from 29. August 2011

EAC extraction logfile from 22. August 2013, 13:16

Daniel Licht / Dexter: Season 7

Used drive : HL-DT-STBD-RE BH10LS38 Adapter: 2 ID: 0

Read mode : SecureUtilize accurate stream : YesDefeat audio cache : YesMake use of C2 pointers : No

Read offset correction : 667Overread into Lead-In and Lead-Out : NoFill up missing offset samples with silence : YesDelete leading and trailing silent blocks : NoNull samples used in CRC calculations : YesUsed interface : Native Win32 interface for Win NT & 2000Gap handling : Appended to previous track

Used output format : User Defined EncoderSelected bitrate : 768 kBit/sQuality : HighAdd ID3 tag : NoCommand line compressor : C:\Program Files (x86)\Exact Audio Copy\FLAC\FLAC.EXEAdditional command line options : -8 -V -T "ARTIST=%artist%" -T "TITLE=%title%" -T "ALBUM=%albumtitle%" -T "DATE=%year%" -T "TRACKNUMBER=%tracknr%" -T "GENRE=%genre%" -T "PERFORMER=%albuminterpret%" -T "COMPOSER=%composer%" %haslyrics%--tag-from-file=LYRICS="%lyricsfile%"%haslyrics% -T "ALBUMARTIST=%albumartist%" -T "ALBUM ARTIST=%albumartist%" -T "DISCNUMBER=%cdnumber%" -T "TOTALDISCS=%totalcds%" -T "TOTALTRACKS=%numtracks%" -T "COMMENT=%comment%" %source% -o %dest%

TOC of the extracted CD

Track | Start | Length | Start sector | End sector --------------------------------------------------------- 1 | 0:00.00 | 1:43.20 | 0 | 7744 2 | 1:43.20 | 4:14.38 | 7745 | 26832 3 | 5:57.58 | 6:12.42 | 26833 | 54774 4 | 12:10.25 | 7:13.64 | 54775 | 87313 5 | 19:24.14 | 4:00.54 | 87314 | 105367 6 | 23:24.68 | 3:31.03 | 105368 | 121195 7 | 26:55.71 | 3:22.74 | 121196 | 136419 8 | 30:18.70 | 2:27.06 | 136420 | 147450 9 | 32:46.01 | 2:52.70 | 147451 | 160420 10 | 35:38.71 | 2:04.25 | 160421 | 169745 11 | 37:43.21 | 2:37.40 | 169746 | 181560 12 | 40:20.61 | 3:56.31 | 181561 | 199291 13 | 44:17.17 | 1:44.33 | 199292 | 207124 14 | 46:01.50 | 3:32.31 | 207125 | 223055 15 | 49:34.06 | 2:07.03 | 223056 | 232583 16 | 51:41.09 | 1:26.50 | 232584 | 239083 17 | 53:07.59 | 0:46.66 | 239084 | 242599 18 | 53:54.50 | 2:03.29 | 242600 | 251853 19 | 55:58.04 | 1:30.42 | 251854 | 258645 20 | 57:28.46 | 2:20.04 | 258646 | 269149 21 | 59:48.50 | 1:37.33 | 269150 | 276457 22 | 61:26.08 | 2:31.05 | 276458 | 287787 23 | 63:57.13 | 4:07.49 | 287788 | 306361

Track 1

Filename C:\Users\chris\Desktop\Rips\01 - Rolfe Kent - Dexter Main Title.wav

Pre-gap length 0:00:02.00

Peak level 79.4 % Extraction speed 0.7 X Track quality 99.8 % Test CRC 97F94AEC Copy CRC 97F94AEC Track not present in AccurateRip database Copy OK

Track 2

Filename C:\Users\chris\Desktop\Rips\02 - Stan Getz & João Gilberto - Desafinado.wav

Peak level 99.9 % Extraction speed 1.2 X Track quality 100.0 % Test CRC B264892A Copy CRC B264892A Track not present in AccurateRip database Copy OK

Track 3

Filename C:\Users\chris\Desktop\Rips\03 - The Spanish Harlem Orchestra - Sacala Bailar.wav

Peak level 100.0 % Extraction speed 1.4 X Track quality 100.0 % Test CRC 9EA29785 Copy CRC 9EA29785 Track not present in AccurateRip database Copy OK

Track 4

Filename C:\Users\chris\Desktop\Rips\04 - Patato - Desde El Fondo Del Rio.wav

Peak level 100.0 % Extraction speed 1.7 X Track quality 100.0 % Test CRC A72348DC Copy CRC A72348DC Track not present in AccurateRip database Copy OK

Track 5

Filename C:\Users\chris\Desktop\Rips\05 - Latin Soul Syndicate - En La Mañana.wav

Peak level 71.6 % Extraction speed 1.7 X Track quality 100.0 % Test CRC E73D2F38 Copy CRC E73D2F38 Track not present in AccurateRip database Copy OK

Track 6

Filename C:\Users\chris\Desktop\Rips\06 - The Kluba - Esta Noche No Pares.wav

Peak level 70.7 % Extraction speed 1.7 X Track quality 100.0 % Test CRC 52A8D3D3 Copy CRC 52A8D3D3 Track not present in AccurateRip database Copy OK

Track 7

Filename C:\Users\chris\Desktop\Rips\07 - Sonya Belousova - Blood Theme for Piano.wav

Peak level 98.8 % Extraction speed 1.8 X Track quality 100.0 % Test CRC 2DE8F72F Copy CRC 2DE8F72F Track not present in AccurateRip database Copy OK

Track 8

Filename C:\Users\chris\Desktop\Rips\08 - Daniel Licht - What Are You , Crazy.wav

Peak level 49.9 % Extraction speed 1.4 X Track quality 99.9 % Test CRC F7A25C9C Copy CRC F7A25C9C Track not present in AccurateRip database Copy OK

Track 9

Filename C:\Users\chris\Desktop\Rips\09 - Daniel Licht - I Enjoy Killing , The Hitman.wav

Peak level 98.8 % Extraction speed 1.8 X Track quality 100.0 % Test CRC D2120DA2 Copy CRC D2120DA2 Track not present in AccurateRip database Copy OK

Track 10

Filename C:\Users\chris\Desktop\Rips\10 - Daniel Licht - Argentina.wav

Peak level 86.1 % Extraction speed 1.8 X Track quality 100.0 % Test CRC 44616E40 Copy CRC 44616E40 Track not present in AccurateRip database Copy OK

Track 11

Filename C:\Users\chris\Desktop\Rips\11 - Daniel Licht - Dex Kills Spelz.wav

Peak level 98.8 % Extraction speed 1.9 X Track quality 100.0 % Test CRC 634B1098 Copy CRC 634B1098 Track not present in AccurateRip database Copy OK

Track 12

Filename C:\Users\chris\Desktop\Rips\12 - Daniel Licht - About Lumen , Isaac''s Sneak Kill.wav

Peak level 98.8 % Extraction speed 2.1 X Track quality 100.0 % Test CRC F4D92B0B Copy CRC F4D92B0B Track not present in AccurateRip database Copy OK

Track 13

Filename C:\Users\chris\Desktop\Rips\13 - Daniel Licht - He''s Gone.wav

Peak level 98.8 % Extraction speed 1.8 X Track quality 100.0 % Test CRC 48842546 Copy CRC 48842546 Track not present in AccurateRip database Copy OK

Track 14

Filename C:\Users\chris\Desktop\Rips\14 - Daniel Licht - Special , Hannah Talks.wav

Peak level 86.9 % Extraction speed 2.2 X Track quality 100.0 % Test CRC 44C6C496 Copy CRC 44C6C496 Track not present in AccurateRip database Copy OK

Track 15

Filename C:\Users\chris\Desktop\Rips\15 - Daniel Licht - Louis Dies.wav

Peak level 98.8 % Extraction speed 2.0 X Track quality 100.0 % Test CRC 3EB44702 Copy CRC 3EB44702 Track not present in AccurateRip database Copy OK

Track 16

Filename C:\Users\chris\Desktop\Rips\16 - Daniel Licht - Isaac Is Done.wav

Peak level 85.7 % Extraction speed 1.4 X Track quality 99.8 % Test CRC 619EC3AF Copy CRC 619EC3AF Track not present in AccurateRip database Copy OK

Track 17

Filename C:\Users\chris\Desktop\Rips\17 - Daniel Licht - Post Office.wav

Peak level 98.8 % Extraction speed 1.4 X Track quality 100.0 % Test CRC 4449A7D3 Copy CRC 4449A7D3 Track not present in AccurateRip database Copy OK

Track 18

Filename C:\Users\chris\Desktop\Rips\18 - Daniel Licht - No Mistakes , Dex Kisses Hannah.wav

Peak level 98.8 % Extraction speed 2.0 X Track quality 100.0 % Test CRC D30BB649 Copy CRC D30BB649 Track not present in AccurateRip database Copy OK

Track 19

Filename C:\Users\chris\Desktop\Rips\19 - Daniel Licht - Unsafe for Kids.wav

Peak level 98.8 % Extraction speed 1.9 X Track quality 100.0 % Test CRC B4E6BA4D Copy CRC B4E6BA4D Track not present in AccurateRip database Copy OK

Track 20

Filename C:\Users\chris\Desktop\Rips\20 - Daniel Licht - Banjo The Dog , I Blinked.wav

Peak level 98.8 % Extraction speed 1.8 X Track quality 99.9 % Test CRC 8334B993 Copy CRC 8334B993 Track not present in AccurateRip database Copy OK

Track 21

Filename C:\Users\chris\Desktop\Rips\21 - Daniel Licht - The Future.wav

Peak level 98.8 % Extraction speed 2.0 X Track quality 100.0 % Test CRC A2E1B186 Copy CRC A2E1B186 Track not present in AccurateRip database Copy OK

Track 22

Filename C:\Users\chris\Desktop\Rips\22 - Daniel Licht - In Love With You.wav

Peak level 69.1 % Extraction speed 1.9 X Track quality 99.9 % Test CRC 3A8CCFFC Copy CRC 3A8CCFFC Track not present in AccurateRip database Copy OK

Track 23

Filename C:\Users\chris\Desktop\Rips\23 - Daniel Licht - Pancakes , Season Seven End.wav

Peak level 98.8 % Extraction speed 2.2 X Track quality 99.9 % Test CRC BC19BF45 Copy CRC BC19BF45 Track not present in AccurateRip database Copy OK

None of the tracks are present in the AccurateRip database

No errors occurred

End of status report

==== Log checksum AB1540E21AAD17381E692B0DC99866568BE167ED4ADE5F30361E71C7559C616F ====
REM GENRE SoundtrackREM DATE 2013REM DISCID 540FF417REM COMMENT "ExactAudioCopy v1.0b3"FILE "01 - Rolfe Kent - Dexter Main Title.wav" WAVE TRACK 01 AUDIO INDEX 01 00:00:00FILE "02 - Stan Getz & Joгo Gilberto - Desafinado.wav" WAVE TRACK 02 AUDIO INDEX 01 00:00:00FILE "03 - The Spanish Harlem Orchestra - Sacala Bailar.wav" WAVE TRACK 03 AUDIO INDEX 01 00:00:00FILE "04 - Patato - Desde El Fondo Del Rio.wav" WAVE TRACK 04 AUDIO INDEX 01 00:00:00FILE "05 - Latin Soul Syndicate - En La Maсana.wav" WAVE TRACK 05 AUDIO INDEX 01 00:00:00FILE "06 - The Kluba - Esta Noche No Pares.wav" WAVE TRACK 06 AUDIO INDEX 01 00:00:00FILE "07 - Sonya Belousova - Blood Theme for Piano.wav" WAVE TRACK 07 AUDIO INDEX 01 00:00:00FILE "08 - Daniel Licht - What Are You , Crazy.wav" WAVE TRACK 08 AUDIO INDEX 01 00:00:00FILE "09 - Daniel Licht - I Enjoy Killing , The Hitman.wav" WAVE TRACK 09 AUDIO INDEX 01 00:00:00FILE "10 - Daniel Licht - Argentina.wav" WAVE TRACK 10 AUDIO INDEX 01 00:00:00FILE "11 - Daniel Licht - Dex Kills Spelz.wav" WAVE TRACK 11 AUDIO INDEX 01 00:00:00FILE "12 - Daniel Licht - About Lumen , Isaac''s Sneak Kill.wav" WAVE TRACK 12 AUDIO INDEX 01 00:00:00FILE "13 - Daniel Licht - He''s Gone.wav" WAVE TRACK 13 AUDIO INDEX 01 00:00:00FILE "14 - Daniel Licht - Special , Hannah Talks.wav" WAVE TRACK 14 AUDIO INDEX 01 00:00:00FILE "15 - Daniel Licht - Louis Dies.wav" WAVE TRACK 15 AUDIO INDEX 01 00:00:00FILE "16 - Daniel Licht - Isaac Is Done.wav" WAVE TRACK 16 AUDIO INDEX 01 00:00:00FILE "17 - Daniel Licht - Post Office.wav" WAVE TRACK 17 AUDIO INDEX 01 00:00:00FILE "18 - Daniel Licht - No Mistakes , Dex Kisses Hannah.wav" WAVE TRACK 18 AUDIO INDEX 01 00:00:00FILE "19 - Daniel Licht - Unsafe for Kids.wav" WAVE TRACK 19 AUDIO INDEX 01 00:00:00FILE "20 - Daniel Licht - Banjo The Dog , I Blinked.wav" WAVE TRACK 20 AUDIO INDEX 01 00:00:00FILE "21 - Daniel Licht - The Future.wav" WAVE TRACK 21 AUDIO INDEX 01 00:00:00FILE "22 - Daniel Licht - In Love With You.wav" WAVE TRACK 22 AUDIO INDEX 01 00:00:00FILE "23 - Daniel Licht - Pancakes , Season Seven End.wav" WAVE TRACK 23 AUDIO INDEX 01 00:00:00
AUDIOCHECKER v2.0 beta (build 457) - by Dester - opdester@freemail.hu~~~~~~~~~~~~~~~~~~~~~~~~~~~~~~~~~~-=== НЕ РЕДАКТИРУЙТЕ ЭТОТ ФАЙЛ! ===-

Путь: ...\Daniel Licht - Dexter. Season 7 (2013)

01 -=- 01 - Rolfe Kent - Dexter Main Title.flac -=- CDDA (99%)02 -=- 02 - Stan Getz & Joao Gilberto - Desafinado.flac -=- ERROR03 -=- 03 - The Spanish Harlem Orchestra - Sacala Bailar.flac -=- CDDA (100%)04 -=- 04 - Patato - Desde El Fondo Del Rio.flac -=- CDDA (99%)05 -=- 05 - Latin Soul Syndicate - En La Manana.flac -=- ERROR06 -=- 06 - The Kluba - Esta Noche No Pares.flac -=- MPEG (95%)07 -=- 07 - Sonya Belousova - Blood Theme for Piano.flac -=- CDDA (100%)08 -=- 08 - Daniel Licht - What Are You , Crazy.flac -=- CDDA (100%)09 -=- 09 - Daniel Licht - I Enjoy Killing , The Hitman.flac -=- CDDA (100%)10 -=- 10 - Daniel Licht - Argentina.flac -=- CDDA (99%)11 -=- 11 - Daniel Licht - Dex Kills Spelz.flac -=- CDDA (100%)12 -=- 12 - Daniel Licht - About Lumen , Isaac''s Sneak Kill.flac -=- CDDA (100%)13 -=- 13 - Daniel Licht - He''s Gone.flac -=- CDDA (100%)14 -=- 14 - Daniel Licht - Special , Hannah Talks.flac -=- CDDA (92%)15 -=- 15 - Daniel Licht - Louis Dies.flac -=- CDDA (100%)16 -=- 16 - Daniel Licht - Isaac Is Done.flac -=- CDDA (100%)17 -=- 17 - Daniel Licht - Post Office.flac -=- CDDA (100%)18 -=- 18 - Daniel Licht - No Mistakes , Dex Kisses Hannah.flac -=- CDDA (100%)19 -=- 19 - Daniel Licht - Unsafe for Kids.flac -=- CDDA (100%)20 -=- 20 - Daniel Licht - Banjo The Dog , I Blinked.flac -=- CDDA (100%)21 -=- 21 - Daniel Licht - The Future.flac -=- CDDA (100%)22 -=- 22 - Daniel Licht - In Love With You.flac -=- CDDA (100%)23 -=- 23 - Daniel Licht - Pancakes , Season Seven End.flac -=- CDDA (100%)

Сводка 94,95% CDDA

37396596


Трекер:  [ 25-Сен-2013 08:33 ]

  

Скачать .torrent

Размер .torrent файла 17 KB


Размер: 365 MB
Хэш (hash) релиза: 2c6316c068879c02361bc83442f6a47b707cfd0b

Еще никто не оставлял запись к записи скачать торрент Декстер Правосудие Декстера . Будь первым!

!Обратная связь