Скачать через торрент музыку Schiller - Sun Meets Moon бесплатно без регистрации torrent

Если у вас наблюдаются проблемы со скриншотами, переходом по ссылками, скачиванием торрентов - проблемы в блокировщике рекламы AdBlock. #хорошегоДня!


Статистика раздачи
Размер:  29 MB   |    Зарегистрирован:  5 лет 10 месяцев   |    .torrent скачан:  27 раз   |   
Раздают:  1  
   
Загрузка...
 
Автор Сообщение

Galfimbul

avatar Galfimbul


Schiller - Sun Meets Moon

Год выпуска: 2010
Жанр: Ambient
Продолжительность: 00:04:29

Качество: WebRip
Формат: AVI
Видео кодек: H.264
Аудио кодек: MP3
Видео: MPEG4 (H264) 720x400 25.00fps 704 Kbps
Аудио: MPEG-1 Audio Layer 3 48000Hz stereo 192 kbps
E:\Мои Раздачи\Schiller - Sun Meets Moon \Schiller - Sun Meets Moon .avi
General
Complete name : E:\Мои Раздачи\Schiller - Sun Meets Moon \Schiller - Sun Meets Moon .avi
Format : AVI
Format/Info : Audio Video Interleave
File size : 28.9 MiB
Duration : 4mn 29s
Overall bit rate : 901 Kbps
Video #0
ID : 0
Format : MPEG-4 Visual
Format profile : Simple@L1
Format settings, BVOP : No
Format settings, QPel : No
Format settings, GMC : No warppoints
Format settings, Matrix : Default (H.263)
Codec ID : FMP4
Duration : 4mn 29s
Bit rate : 704 Kbps
Width : 720 pixels
Height : 400 pixels
Display aspect ratio : 16:9
Frame rate : 25.000 fps
Resolution : 8 bits
Colorimetry : 4:2:0
Scan type : Progressive
Bits/(Pixel*Frame) : 0.098
Stream size : 22.6 MiB (78%)
Writing library : Lavc51.40.4
Audio #1
ID : 1
Format : MPEG Audio
Format version : Version 1
Format profile : Layer 3
Format_Settings_Mode : Joint stereo
Codec ID : 55
Codec ID/Hint : MP3
Duration : 4mn 29s
Bit rate mode : Constant
Bit rate : 192 Kbps
Channel(s) : 2 channels
Sampling rate : 44.1 KHz
Stream size : 6.16 MiB (21%)
Alignment : Aligned on interleaves
Interleave, duration : 1016 ms (25.41 video frames)
Interleave, preload duration : 208 ms
Title : audio
Writing library : LAME3.97
Encoding settings : -m j -V 4 -q 0 -lowpass 18.6 -b 192


Трекер:  [ 23-Ноя-2011 21:35 ]

  

Скачать .torrent

Размер .torrent файла 18 KB


Размер: 29 MB
Хэш (hash) релиза: 56870ee2f337f47a5260f83510ea98c62b6ef885

Еще никто не оставлял запись к записи скачать торрент Schiller - Sun Meets Moon . Будь первым!

!Обратная связь