Скачать порно через торрент SM no Susume Запретные основы UnionPeer.org бесплатно онлайн HD качество

Скачать новое порно 2015, 2014 новинки через торрент UnionPeer.org

Порно торрент бесплатно ЮнионПир.орг

Если у вас наблюдаются проблемы со скриншотами, переходом по ссылками, скачиванием торрентов - проблемы в блокировщике рекламы AdBlock. #хорошегоДня!


Статистика раздачи
Размер:  2.48 GB   |    Зарегистрирован:  4 года 1 месяц   |    .torrent скачан:  88 раз   |   
Раздают:  1  
   
Загрузка...
 
Автор Сообщение

LinGr

avatar LinGr


SM no Susume / SMノススメ
Запретные основы

Год производства: 2001 г.
Жанр: Masturbation, Oral sex, BDSM
Серии: ep. 1
Продолжительность: ~ 30 min
Цензура: Есть

Озвучка: Японская (Оригинальная)

Автор оригинала: Tenshindo, AMGA
Студия: Museum Pictures, Milky Animation Label

Описание RUS: Он и три девушки вокруг него. Молодая учительница, его неродная младшая сестра, подруга сестры. Кого из трёх этот безликий главный герой выберет для своих съёмок?

Описание ENG: He and three girls around him. Young teacher, his younger sister, not blood-related, a friend's sister. Which of the three this faceless protagonist chooses for his film?

Информационные ссылки: AniDB - MAL - World Art - ХентайМаг

Качество видео: DVD5
Формат видео: DVD Video
Видео кодек: MPEG2
Аудио кодек: AC3
Видео: 720х480, (4:3), 29,970 кадров/сек, ~ 8757 Кбит/сек, NTSC
Аудио: JAP, AC-3, 2 канала, 384 Кбит/сек, 48,0 КГц
Общее
Полное имя : J:\VIDEO_TS\VTS_01_1.VOB
Формат : MPEG-PS
Размер файла : 1024 Мбайт
Продолжительность : 15 м.
Режим общего битрейта : Переменный
Общий поток : 9327 Кбит/сек

Видео
Идентификатор : 224 (0xE0)
Формат : MPEG Video
Версия формата : Version 2
Профиль формата : Main@Main
Параметр BVOP формата : Да
Параметр матрицы формата : Выборочная
Параметр GOP формата : M=3, N=15
Продолжительность : 15 м.
Вид битрейта : Переменный
Битрейт : 8757 Кбит/сек
Максимальный битрейт : 9000 Кбит/сек
Ширина : 720 пикселей
Высота : 480 пикселей
Соотношение сторон : 4:3
Частота кадров : 29,970 кадров/сек
Стандарт вещания : NTSC
Цветовое пространство : YUV
Субдискретизация насыщенности : 4:2:0
Битовая глубина : 8 бит
Тип развёртки : Чересстрочная
Порядок развёртки : Верхнее поле первое
Метод сжатия : С потерями
Бит/(Пиксели*Кадры) : 0.845
Временной код первого кадра : 01:03:52:25
Оригинал временного кода : Group of pictures header
Размер потока : 961 Мбайт (94%)

Аудио
Идентификатор : 189 (0xBD)-128 (0x80)
Формат : AC-3
Формат/Информация : Audio Coding 3
Расширение режима : CM (complete main)
Параметр Endianness формата : Big
Режим смешивания : DVD-Video
Продолжительность : 15 м.
Вид битрейта : Постоянный
Битрейт : 384 Кбит/сек
Каналы : 2 канала
Расположение каналов : Front: L R
Частота : 48,0 КГц
Битовая глубина : 16 бит
Метод сжатия : С потерями
Размер потока : 42,1 Мбайт (4%)

Меню


Трекер:  [ 24-Авг-2013 00:20 ]

  

Скачать .torrent

Размер .torrent файла 13 KB


Размер: 2.48 GB
Хэш (hash) релиза: 0fa3405d3ec0f6113958fad191d0cd55d92f24b4

Торренты, похожие на SM no Susume Запретные основы скачать торрент

Форум Название Автор Размер S L Добавлен
Хентай | С цензурой ·· SM no Susume / Запретные основы (Museum Pictures, Milky, AMGA) (ep. 1 of 1) [cen] [2001 г., Masturbation, Oral, DVDRip] [jap] [720p] Galfimbul 329168474314 MB 0 0 1370453839

20:37

5-Июн-13

bot

Топик был перенесен в форум Хентай | С цензурой

Перенес LinGr

Хотите добавить комментарий к записи скачать торрент SM no Susume Запретные основы

!Обратная связь