Скачать через торрент музыку Groove Armada - My friend бесплатно без регистрации torrent

Если у вас наблюдаются проблемы со скриншотами, переходом по ссылками, скачиванием торрентов - проблемы в блокировщике рекламы AdBlock. #хорошегоДня!


Статистика раздачи
Размер:  95 MB   |    Зарегистрирован:  5 лет 11 месяцев   |    .torrent скачан:  35 раз   |   
Раздают:  1  
   
Загрузка...
 
Автор Сообщение

Galfimbul

avatar Galfimbul


Groove Armada - My friend

Жанр: Electronic, Trip-Hop
Продолжительность: 00:04:01

Доп. информация: My friend - второй сингл Groove armada с альбома Goodbye Country (Hello Nightclub), который был выпущен в 2001 году. В песне звучит голос Селети Мартин, сэмпл из песни "Gotta learn how to dance" группы "Fatback band" а также сэмпл барабанов из песни "It's a new day" группы Skull snaps. Текст - вставка из хита певицы Brandy "Best friend" 1995 года. Песня была представлена на голландском телевидении в рекламе напитков "Royal Club" в 2002 году, то привело к повторному выпуску сингла и более высоким позициям песни в голландских чартах, чем в 2001.

Качество: DVDRip
Формат: AVI
Видео кодек: XviD
Аудио кодек: AC3
Видео: MPEG-4 Visual 720x416 25.000 fps 2 854 Kbps
Аудио: AC-3 448 Kbps 6 channels 48.0 KHz
 
GeneralComplete name : D:\Video\HQ\Groove_Armada-My_Friend.aviFormat : AVIFormat/Info : Audio Video InterleaveFile size : 95.2 MiBDuration : 4mn 1sOverall bit rate : 3 309 KbpsWriting application : VirtualDubMod 1.5.4.1 (build 2178/release)Writing library : VirtualDubMod build 2178/release

VideoID : 0Format : MPEG-4 VisualFormat profile : Advanced Simple@L5Format settings, BVOP : YesFormat settings, QPel : NoFormat settings, GMC : No warppointsFormat settings, Matrix : CustomCodec ID : XVIDCodec ID/Hint : XviDDuration : 4mn 1sBit rate : 2 854 KbpsWidth : 720 pixelsHeight : 416 pixelsDisplay aspect ratio : 16:9Frame rate : 25.000 fpsColor space : YUVChroma subsampling : 4:2:0Bit depth : 8 bitsScan type : ProgressiveBits/(Pixel*Frame) : 0.381Stream size : 82.1 MiB (86%)Writing library : XviD 1.2.0SMP (UTC 2006-01-08)

AudioID : 1Format : AC-3Format/Info : Audio Coding 3Mode extension : CM (complete main)Codec ID : 2000Duration : 4mn 1sBit rate mode : ConstantBit rate : 448 KbpsChannel(s) : 6 channelsChannel positions : Front: L C R, Side: L R, LFESampling rate : 48.0 KHzStream size : 12.9 MiB (14%)Alignment : Aligned on interleavesInterleave, duration : 96 ms (2.40 video frames)Interleave, preload duration : 96 ms
Groove Armada - английский музыкальный электронный дуэт, состоящий из Энди Като (Andy Cato) и Тома Финдлея (Tom Findlay). В настоящее время они проживают и творят в Лондоне, периодически выступая в лондонских клубах, а также на ежегодном фестивале Lovebox. Группа сотрудничала с множеством различных музыкантов. Том однажды сказал, что поработать с Принсом - мечта всей его жизни, хотя на данный момент таких планов нет.

Дуэт Groove Armada был образован в середине 90-х. Ребят познакомила подруга Като, и вскоре они вместе открыли собственный клуб, также носящий имя Groove Armada. В 1997 году они выпустили несколько синглов, в том числе 4 Tune Cookie, и At The River, сэмпл из которой был использован в саундтреке к фильму Крепкий орешек 2, однако широкой известности не добились. Эта песня стала их визитной карточкой и была включена во многие chill-out сборники.

Первый альбом Northern Star был выпущен в 1998 году на лейбле Tummy Touch Records. В 1999 году выходит вторая пластинка Vertigo с большим уклоном в сторону мэйнстрима и более <отполированным> звуком. Это позволило ей пробиться в первую двадцатку британского чарта и получить серебряный статус. В трек-лист вошла также и At The River, предварительно выпущенная полноценным синглом. Альбом ремиксов на Vertigo, The Remixes, вышел в 2000 году.

Их следующий студийный альбом Goodbye Country: Hello Nightclub вышел в 2001 году, и как несложно догадаться по названию, ознаменовал переход от chill-out к более энергичной музыке. Подтверждение тому - номинация сингла "Superstylin'" на Grammy. Менее чем через год после выхода Goodbye Country: Hello Nightclub дуэт выпускает Lovebox, в котором собраны множество жанров, а звук стал заметно более дерзким, с большой примесью фанка. Некоторые треки несут элементы рока, например "Madder", остальные - традиционный Хаус, например заглавные треки "Lovebox" и "Remember", вокал для которых был составлен из семплов Санди Дэнни, вокалиста Fairport Convention. Дополнительный бонус-трек "Fairport" был позже выложен на веб-сайте коллектива.


Трекер:  [ 23-Ноя-2011 21:41 ]

  

Скачать .torrent

Размер .torrent файла 15 KB


Размер: 95 MB
Хэш (hash) релиза: 230b136b3943ed9608990151c3ec19e49080ead6

Еще никто не оставлял запись к записи скачать торрент Groove Armada - My friend . Будь первым!

!Обратная связь