Скачать через торрент музыку Angela McCluskey feat. Telepopmusik - Handle With Grace бесплатно без регистрации torrent

Если у вас наблюдаются проблемы со скриншотами, переходом по ссылками, скачиванием торрентов - проблемы в блокировщике рекламы AdBlock. #хорошегоДня!


Статистика раздачи
Размер:  60 MB   |    Зарегистрирован:  5 лет 10 месяцев   |    .torrent скачан:  26 раз   |   
Раздают:  1  
   
Загрузка...
 
Автор Сообщение

Galfimbul

avatar Galfimbul


Angela McCluskeyfeat. Télépopmusik - Handle With Grace (video)

Год выпуска: 2010
Жанр: Downtempo
Продолжительность: 3:40
Режиссер: Alex Takacs и Joe Nankin

Описание: Клип Angela McCluskey и Télépopmusik на песню Handle With Grace.

Качество: HDRip
Формат: AVI
Видео кодек: XviD
Аудио кодек: MP3
Видео: XviD, 720x408 (16:9), 1.999 Kbps, 23.976 fps
Аудио: MP3, V0, 44.1 KHz, 2 ch
 
GeneralComplete name : D:\My Documents\Видео\Music\Angela McCluskey feat. Telepopmusik - Handle With Grace.aviFormat : AVIFormat/Info : Audio Video InterleaveFile size : 59.6 MiBDuration : 3mn 40sOverall bit rate : 2 264 KbpsWriting application : VirtualDubMod 1.5.10.2 (build 2540/release)Writing library : VirtualDubMod build 2540/release

VideoID : 0Format : MPEG-4 VisualFormat profile : Advanced Simple@L5Format settings, BVOP : YesFormat settings, QPel : NoFormat settings, GMC : No warppointsFormat settings, Matrix : Default (MPEG)Codec ID : XVIDCodec ID/Hint : XviDDuration : 3mn 40sBit rate : 1 999 KbpsWidth : 720 pixelsHeight : 408 pixelsDisplay aspect ratio : 16:9Frame rate : 23.976 fpsColor space : YUVChroma subsampling : 4:2:0Bit depth : 8 bitsScan type : ProgressiveBits/(Pixel*Frame) : 0.284Stream size : 52.6 MiB (88%)Writing library : XviD 1.2.1 (UTC 2008-12-04)

AudioID : 1Format : MPEG AudioFormat version : Version 1Format profile : Layer 3Codec ID : 55Codec ID/Hint : MP3Duration : 3mn 40sBit rate mode : VariableBit rate : 252 KbpsMinimum bit rate : 32.0 KbpsChannel(s) : 2 channelsSampling rate : 44.1 KHzStream size : 6.63 MiB (11%)Alignment : Aligned on interleavesInterleave, duration : 26 ms (0.63 video frame)Interleave, preload duration : 318 msWriting library : LAME3.98rEncoding settings : -m s -V 0 -q 0 -lowpass 19.5 --vbr-new -b 32
приятного просмотра


Трекер:  [ 23-Ноя-2011 21:53 ]

  

Скачать .torrent

Размер .torrent файла 19 KB


Размер: 60 MB
Хэш (hash) релиза: 19c0a4f15fbe8d1f1aa3dc4c39b76fdfba5f6d5d

Еще никто не оставлял запись к записи скачать торрент Angela McCluskey feat. Telepopmusik - Handle With Grace . Будь первым!

!Обратная связь