Скачать через торрент музыку Massive Attack - 2 клипа бесплатно без регистрации torrent

Если у вас наблюдаются проблемы со скриншотами, переходом по ссылками, скачиванием торрентов - проблемы в блокировщике рекламы AdBlock. #хорошегоДня!


Статистика раздачи
Размер:  136 MB   |    Зарегистрирован:  5 лет 10 месяцев   |    .torrent скачан:  28 раз   |   
Раздают:  1  
   
Загрузка...
 
Автор Сообщение

Galfimbul

avatar Galfimbul


Massive Attack - Flat Of The Blade & Splitting the Atom - Official video


Страна: UK
Дата релиза: 2010
Стиль: Trip-Hop
Качество: WebRip
Tracklist:
Complete name : C:\Users\Филин\Desktop\Massive Attack - Splitting The Atom (Official Video).mp4
Format : MPEG-4
Format profile : Base Media
Codec ID : isom
File size : 91.4 MiB
Duration : 5mn 20s
Overall bit rate : 2 390 Kbps
Encoded date : UTC 2010-02-03 15:25:36
Tagged date : UTC 2010-02-03 15:25:36

Video
ID : 1
Format : MPEG-4 Visual
Format profile : Simple@L1
Format settings, BVOP : No
Format settings, QPel : No
Format settings, GMC : No warppoints
Format settings, Matrix : Default (H.263)
Codec ID : 20
Duration : 5mn 20s
Bit rate mode : Variable
Bit rate : 2 226 Kbps
Width : 640 pixels
Height : 358 pixels
Display aspect ratio : 16:9
Frame rate mode : Constant
Frame rate : 29.970 fps
Resolution : 24 bits
Colorimetry : 4:2:0
Scan type : Progressive
Bits/(Pixel*Frame) : 0.324
Stream size : 85.0 MiB (93%)
Writing library : Lavc51.40.4
Encoded date : UTC 2010-02-03 15:25:36
Tagged date : UTC 2010-02-03 15:25:36

Audio
ID : 2
Format : AAC
Format/Info : Advanced Audio Codec
Format version : Version 4
Format profile : LC
Format settings, SBR : No
Codec ID : 40
Duration : 5mn 20s
Bit rate mode : Variable
Bit rate : 162 Kbps
Channel(s) : 2 channels
Channel positions : L R
Sampling rate : 48.0 KHz
Resolution : 16 bits
Stream size : 6.19 MiB (7%)
Encoded date : UTC 2010-02-03 15:25:36
Tagged date : UTC 2010-02-03 15:25:36
Complete name : C:\Users\Филин\Desktop\Massive Attack - Flat of the blade.flv
Format : Flash Video
File size : 44.2 MiB
Duration : 5mn 28s
Overall bit rate : 1 130 Kbps

Video
Format : VP6
Duration : 5mn 28s
Bit rate : 1 000 Kbps
Width : 640 pixels
Height : 360 pixels
Display aspect ratio : 16:9
Frame rate : 25.000 fps
Bits/(Pixel*Frame) : 0.174
Stream size : 39.1 MiB (88%)

Audio
Format : MPEG Audio
Format version : Version 1
Format profile : Layer 3
Format settings, Mode : Joint stereo / MS Stereo
Duration : 5mn 28s
Bit rate mode : Constant
Bit rate : 128 Kbps
Channel(s) : 2 channels
Sampling rate : 44.1 KHz
Resolution : 16 bits
Stream size : 5.01 MiB (11%)


Трекер:  [ 23-Ноя-2011 22:09 ]

  

Скачать .torrent

Размер .torrent файла 11 KB


Размер: 136 MB
Хэш (hash) релиза: 5011161bfbee3f132b3fd216c37d474e95518ef1

Еще никто не оставлял запись к записи скачать торрент Massive Attack - 2 клипа . Будь первым!

!Обратная связь