Скачать через торрент музыку Jazzbit - Sing Sing Sing бесплатно без регистрации torrent

Если у вас наблюдаются проблемы со скриншотами, переходом по ссылками, скачиванием торрентов - проблемы в блокировщике рекламы AdBlock. #хорошегоДня!


Статистика раздачи
Размер:  128 MB   |    Зарегистрирован:  5 лет 10 месяцев   |    .torrent скачан:  32 раза   |   
Раздают:  1  
   
Загрузка...
 
Автор Сообщение

Galfimbul

avatar Galfimbul


Jazzbit

Taken From Kontor Top Of The Clubs Vol. 48! Out 17.09.2010
VA-Kontor_Top_Of_The_Clubs_2010.01-WEB-2009-UMT 2010-10-31

Страна: USA
Жанр: Jazzbit/DubStep

"Sing, Sing, Sing (With a Swing)" is a 1936 song, written by Louis Prima and first recorded by him with the New Orleans Gang and released in March 1936 as a 78 as Brunswick 7628 (with "It's Been So Long" as the B side).
It is strongly identified with the big band and swing eras.
It was covered by Fletcher Henderson and most famously Benny Goodman.
Originally entitled "Sing Bing Sing", in reference to Bing Crosby, it was soon retitled for use in wider contexts. The song has since been covered by numerous artists.

01 Jazzbit - Sing Sing Sing (Yolanda Be Cool Vs DCUP Remix) 2010

[b]Director: Ben Peters
Director of Photography (+Steadicam)[/b]: Sam Goldie

Taken from the compilation Kontor - Top Of The Clubs Vol. 48. Out Now! www.kontorrecords.de

Audio : Jazzbit-Sing_Sing_Sing__2010_Remixes-(TIME599CDS)-CDM-2010-MTC Kontor Records (2010-09-21 10:56:14)
Format : MPEG-4
Format profile : QuickTime
Codec ID : qt
File size : 39.4 MiB
Duration : 2mn 20s
Overall bit rate : 2 355 Kbps
Encoded date : UTC 2010-10-06 16:14:45
Tagged date : UTC 2010-10-06 16:20:45
Writing library : Apple QuickTime
Media/UUID : 4E357ADA-EA8E-4897-B0E4-C3129A0A6A24
Media/History/UUID : CFBAA492-93D3-4417-B2F1-5CCD553BC0CD

Video
ID : 1
Format : AVC
Format/Info : Advanced Video Codec
Format profile : Main@L3.1
Format settings, CABAC : No
Format settings, ReFrames : 2 frames
Codec ID : avc1
Codec ID/Info : Advanced Video Coding
Duration : 2mn 20s
Bit rate mode : Variable
Bit rate : 2 040 Kbps
Width : 960 pixels
Height : 540 pixels
Display aspect ratio : 16:9
Frame rate mode : Constant
Frame rate : 25.000 fps
Color space : YUV
Chroma subsampling : 4:2:0
Bit depth : 8 bits
Scan type : Progressive
Bits/(Pixel*Frame) : 0.157
Stream size : 34.1 MiB (87%)
Language : English
Encoded date : UTC 2010-10-06 16:20:38
Tagged date : UTC 2010-10-06 16:20:45
Color primaries : BT.709-5, BT.1361, IEC 61966-2-4, SMPTE RP177
Transfer characteristics : BT.709-5, BT.1361
Matrix coefficients : BT.709-5, BT.1361, IEC 61966-2-4 709, SMPTE RP177

Audio
ID : 2
Format : AAC
Format/Info : Advanced Audio Codec
Format version : Version 4
Format profile : LC
Format settings, SBR : No
Codec ID : 40
Duration : 2mn 20s
Bit rate mode : Constant
Bit rate : 320 Kbps
Channel(s) : 2 channels
Channel positions : Front: L R
Sampling rate : 48.0 KHz
Stream size : 5.19 MiB (13%)
Language : English
Encoded date : UTC 2010-10-06 16:20:38
Tagged date : UTC 2010-10-06 16:20:45

Menu
ID : 3
Language : English
Encoded date : UTC 2010-10-06 16:20:45
Tagged date : UTC 2010-10-06 16:20:45
Качество: WebRip
Продолжительность: 37.8 MiB for 2mn 20s 304ms
Контейнер: mkv
Видео кодек: x264
Аудио кодек: mp3
Видео: AVC at 2 040 Kbps 720 x 480 (2.350) (@ 1128 x 480)at 25.000 fps
Аудио: MPEG Audio at 32-177 Kbps 2 channels, 48.0 KHz
02 Jazzbit - Sing Sing Sing (Yolanda Be Cool & DCup Radio Mix) - YouClubVideo 2010

Spinnin' Records presents: Jazzbit - Sing Sing Sing (Yolanda Be Cool & DCup Radio Mix) [Video]

Качество: WebRip
Продолжительность: 20.4 MiB for 2mn 27s 566ms
Контейнер: mkv
Видео кодек: x264
Аудио кодек: mp3
Видео: AVC at 1 000 Kbps 640 x 480 (1.333) at 25.000 fps
Аудио: MPEG Audio CBR at 160 Kbps 2 channels, 44.1 KHz
03 Jazzbit - Sing Sing Sing (Electro Swing Evan Evans Mix) 2010

Edited by vdj Doc-Terry from the motion picture "L'Homme Orchestre" starring Louis De Funès
Format : Flash Video
File size : 69.4 MiB
Duration : 7mn 16s
Overall bit rate : 1 331 Kbps
httphostheader : v6.lscache2.c.http://рутраскер

Video
Format : AVC
Format/Info : Advanced Video Codec
Format profile : Main@L3.0
Format settings, CABAC : Yes
Format settings, ReFrames : 3 frames
Muxing mode : Container profile=Unknown@3.0
Duration : 7mn 16s
Bit rate : 1 201 Kbps
Width : 854 pixels
Height : 480 pixels
Display aspect ratio : 16:9
Frame rate mode : Constant
Frame rate : 25.000 fps
Color space : YUV
Chroma subsampling : 4:2:0
Bit depth : 8 bits
Scan type : Progressive
Bits/(Pixel*Frame) : 0.117
Stream size : 62.5 MiB (90%)

Audio
Format : AAC
Format/Info : Advanced Audio Codec
Format version : Version 4
Format profile : LC
Format settings, SBR : No
Duration : 7mn 16s
Bit rate : 123 Kbps
Channel(s) : 2 channels
Channel positions : Front: L R
Sampling rate : 44.1 KHz
Bit depth : 16 bits
Stream size : 6.42 MiB (9%)
Качество: WebRip
Продолжительность: 69.7 MiB for 7mn 17s 133ms
Контейнер: mkv
Видео кодек: x264
Аудио кодек: mp3
Видео: AVC at 1 141 Kbps (@ 940 x 400) 720 x 400 (2.350) at 25.000 fps
Аудио: MPEG Audio at 32-170 Kbps 2 channels, 44.1 KHz



Трекер:  [ 23-Ноя-2011 22:09 ]

  

Скачать .torrent

Размер .torrent файла 20 KB


Размер: 128 MB
Хэш (hash) релиза: a085f8fde0173e1952d3ea08df47e6245b288d2a

Еще никто не оставлял запись к записи скачать торрент Jazzbit - Sing Sing Sing . Будь первым!

!Обратная связь