Скачать порно через торрент Offside Girl Девушка вне игры UnionPeer.org бесплатно онлайн HD качество

Скачать новое порно 2015, 2014 новинки через торрент UnionPeer.org

Порно торрент бесплатно ЮнионПир.орг

Если у вас наблюдаются проблемы со скриншотами, переходом по ссылками, скачиванием торрентов - проблемы в блокировщике рекламы AdBlock. #хорошегоДня!


Статистика раздачи
Размер:  2.69 GB   |    Зарегистрирован:  4 года 2 месяца   |    .torrent скачан:  152 раза   |   
Раздают:  1  
   
Загрузка...
 
Автор Сообщение

LinGr

avatar LinGr


Offside Girl / オフサイドガール
Девушка вне игры / Девушка в офсайде

Год производства: 2007 г.
Жанр: Anal, Students, Lactation, Large Breasts, Masturbation, Virgins, Yuri, Oral sex
Серии: ep. 1-2 of 2
Продолжительность: 2х~16 min
Цензура: Есть

Озвучка: Японская (Оригинальная)

Режиссер: Miyoshi Yuuji
Автор оригинала: Nagare Ippon
Студия: AniMan, MS Pictures

Описание RUS: Можно сказать что данный хентай практически на спортивную тематику ибо он про спортивные команды, которые играют в такую мировую игру как футбол. Сегодня матч между сильными футбольными командами и все бы в нем хорошо, если бы игроки были бы не девушки. Ну так вот, до матча они могут пошалить, да еще в ихнюю компашку попадают настоящие парни.

Описание ENG: We can say that this little hentai sports theme because it pro sports teams that play in a game like football world. Today the match between strong football teams and all of it would be nice if the players were not girls. Well, before the match, they can get up to mischief, and even in theirs kompashku get these guys.

Информационные ссылки: AniDB - MAL - World Art - ХентайМаг

Качество видео: 2x DVD5
Формат видео: DVD Video
Видео кодек: MPEG2
Аудио кодек: AC3
Видео: 720х480, (4:3), 29,970 кадров/сек, ~ 8000 Кбит/сек, NTSC
Аудио: JAP, AC-3, 2 канала, 384 Кбит/сек, 48,0 КГц
Общее
Полное имя : J:\VIDEO_TS\VTS_01_1.VOB
Формат : MPEG-PS
Размер файла : 1024 Мбайт
Продолжительность : 1 м. 11 с.
Общий поток : 121 Мбит/сек

Видео
Идентификатор : 224 (0xE0)
Формат : MPEG Video
Версия формата : Version 2
Профиль формата : Main@Main
Параметр BVOP формата : Да
Параметр матрицы формата : Выборочная
Параметр GOP формата : Variable
Продолжительность : 1 м. 11 с.
Битрейт : 118 Мбит/сек
Максимальный битрейт : 8000 Кбит/сек
Ширина : 720 пикселей
Высота : 480 пикселей
Соотношение сторон : 4:3
Частота кадров : 29,970 кадров/сек
Стандарт вещания : NTSC
Цветовое пространство : YUV
Субдискретизация насыщенности : 4:2:0
Битовая глубина : 8 бит
Тип развёртки : Чересстрочная
Порядок развёртки : Верхнее поле первое
Метод сжатия : С потерями
Бит/(Пиксели*Кадры) : 11.394
Временной код первого кадра : 01:01:11;15
Оригинал временного кода : Group of pictures header
Размер потока : 1000 Мбайт (98%)

Аудио
Идентификатор : 189 (0xBD)-128 (0x80)
Формат : AC-3
Формат/Информация : Audio Coding 3
Расширение режима : CM (complete main)
Параметр Endianness формата : Big
Режим смешивания : DVD-Video
Продолжительность : 1 м. 10 с.
Вид битрейта : Постоянный
Битрейт : 384 Кбит/сек
Каналы : 2 канала
Расположение каналов : Front: L R
Частота : 48,0 КГц
Битовая глубина : 16 бит
Метод сжатия : С потерями
Размер потока : 3,24 Мбайт (0%)

Меню



Трекер:  [ 23-Авг-2013 00:12 ]

  

Скачать .torrent

Размер .torrent файла 14 KB


Размер: 2.69 GB
Хэш (hash) релиза: 7ba87d506868fdb5840966c2694e340028ae4db0

bot

Топик был перенесен в форум Хентай | С цензурой

Перенес LinGr

Хотите добавить комментарий к записи скачать торрент Offside Girl Девушка вне игры

!Обратная связь