Скачать через торрент музыку Blank & Jones - The Videos бесплатно без регистрации torrent

Если у вас наблюдаются проблемы со скриншотами, переходом по ссылками, скачиванием торрентов - проблемы в блокировщике рекламы AdBlock. #хорошегоДня!


Статистика раздачи
Размер:  699 MB   |    Зарегистрирован:  5 лет 10 месяцев   |    .torrent скачан:  27 раз   |   
Раздают:  1  
   
Загрузка...
 
Автор Сообщение

Galfimbul

avatar Galfimbul




Год выпуска: 2007
Жанр: Trance
Total time: 01:04:04
Качество: DVDRip-AVC
Формат: MKV
Видео кодек: H264
Аудио кодек: AC3
Видео: MPEG4 Video (H264) / 1350 Kbps 720x480 (AR 853:480) 25.00fps
Аудио: Dolby AC3 48000Hz 2 ch stereo CBR 192 Kbps Front: L R
TrackList:

01. A Forest ( with Robert Smith ) 00:03:34
02. The Hardest Heat 00:03:16
03. Mind Of The Wondetfull 00:04:09
04. Perfect Silence 00:03:34
05. Catch 00:03:20
06. Flowtation 00:04:20
07. Flaming June 00:3:39
08. After Love 00:03:45
09. Beyond The Time 00:03:40
10. Heartbeat 00:03:29
11. Djs , Funs & Freak 00:02:58
12. Desire 00:03:21
13. DJ Culture 00:03:11
14. Flying To The Moon 00:03:27
15. Cream 00:03:33
16. The Nightfly 00:03:52
17. Watching The Waves 00:03:07
18. Perfect Silence U.S. Version 00:03:26


От себя хочу добавить :
Всё , что можно было выжать из исходного DVD - выжато . Сделан упор на качество картинки , звук оставлен нетронутым.
Добавлено потрэковое меню клипов.

General
Complete name : Blank & Jones - The Videos ©2007_AVC\Blank & Jones - The Videos.mkv
Format : Matroska
File size : 699 MiB
Duration : 1h 4mn
Overall bit rate : 1 524 Kbps
Movie name : Blank & Jones - The Videos (by smithland)
Encoded date : UTC 2010-10-28 09:33:30
Writing application : mkvmerge v4.3.0 ('Escape from the Island')
Writing library : libebml v1.0.0 + libmatroska v1.0.0
Cover : Yes / Yes

Video
ID : 1
Format : AVC
Format/Info : Advanced Video Codec
Format profile : High@L3.2
Format settings, CABAC : Yes
Format settings, ReFrames : 8 frames
Format settings, GOP : M=12, N=13
Muxing mode : Container profile=Unknown@3.2
Codec ID : V_MPEG4/ISO/AVC
Duration : 1h 4mn
Bit rate : 1 350 Kbps
Width : 720 pixels
Height : 480 pixels
Display aspect ratio : 16:9
Original display aspect ratio : 16:9
Frame rate mode : Variable
Frame rate : 25.000 fps
Standard : NTSC
Color space : YUV
Chroma subsampling : 4:2:0
Bit depth : 8 bits
Scan type : Progressive
Bits/(Pixel*Frame) : 0.156
Stream size : 597 MiB (85%)
Title : MPEG4 Video (H264) / 1350 Kbps 720x480 (AR 853:480) 25.00fps
Writing library : x264 core 105
Encoding settings : cabac=1 / ref=8 / deblock=1:-2:1 / analyse=0x3:0x133 / me=tesa / subme=10 / psy=1 / psy_rd=1.00:0.10 / mixed_ref=0 / me_range=16 / chroma_me=1 / trellis=2 / 8x8dct=1 / cqm=0 / deadzone=21,11 / fast_pskip=1 / chroma_qp_offset=-3 / threads=6 / sliced_threads=0 / nr=0 / decimate=1 / interlaced=0 / constrained_intra=0 / bframes=16 / b_pyramid=2 / b_adapt=1 / b_bias=0 / direct=3 / weightb=1 / open_gop=1 / weightp=2 / keyint=250 / keyint_min=25 / scenecut=40 / intra_refresh=0 / rc_lookahead=40 / rc=abr / mbtree=1 / bitrate=1350 / ratetol=1.0 / qcomp=0.60 / qpmin=10 / qpmax=51 / qpstep=4 / vbv_maxrate=24000 / vbv_bufsize=24000 / ip_ratio=1.40 / aq=1:1.00 / nal_hrd=none

Audio
ID : 2
Format : AC-3
Format/Info : Audio Coding 3
Mode extension : CM (complete main)
Codec ID : A_AC3
Duration : 1h 4mn
Bit rate mode : Constant
Bit rate : 192 Kbps
Channel(s) : 2 channels
Channel positions : Front: L R
Sampling rate : 48.0 KHz
Bit depth : 16 bits
Stream size : 88.0 MiB (13%)
Title : Dolby AC3 48000Hz 2 ch stereo CBR 192 Kbps Front: L R

Menu
00:00:00.000 : :Kapitel 01
00:03:35.033 : :Kapitel 02
00:07:08.966 : :Kapitel 03
00:11:19.000 : :Kapitel 04
00:14:54.433 : :Kapitel 05
00:18:15.066 : :Kapitel 06
00:22:35.866 : :Kapitel 07
00:26:15.500 : :Kapitel 08
00:30:01.166 : :Kapitel 09
00:33:41.800 : :Kapitel 10
00:36:58.200 : :Kapitel 11
00:39:57.400 : :Kapitel 12
00:43:21.200 : :Kapitel 13
00:46:34.333 : :Kapitel 14
00:50:01.833 : :Kapitel 15
00:53:32.100 : :Kapitel 16
00:57:24.600 : :Kapitel 17
01:00:32.100 : :Kapitel 18


Трекер:  [ 23-Ноя-2011 22:53 ]

  

Скачать .torrent

Размер .torrent файла 28 KB


Размер: 699 MB
Хэш (hash) релиза: 700ccee4a0534a0e2e34ca6176426b36b3c612f9

Еще никто не оставлял запись к записи скачать торрент Blank & Jones - The Videos . Будь первым!

!Обратная связь