Скачать порно через торрент Bakunyuu Bomb Exploding Tits BOMB UnionPeer.org бесплатно онлайн HD качество

Скачать новое порно 2015, 2014 новинки через торрент UnionPeer.org

Порно торрент бесплатно ЮнионПир.орг

Если у вас наблюдаются проблемы со скриншотами, переходом по ссылками, скачиванием торрентов - проблемы в блокировщике рекламы AdBlock. #хорошегоДня!


Статистика раздачи
Размер:  2.84 GB   |    Зарегистрирован:  4 года 3 месяца   |    .torrent скачан:  405 раз   |   
Раздают:  1  
   
Загрузка...
 
Автор Сообщение

LinGr

avatar LinGr


Bakunyuu Bomb / Exploding Tits BOMB / 爆乳BOMB
Взрывающийся бомбо-бюст

Год производства: 2009 г.
Жанр: Anal sex, Large breasts, Group sex, Milk, Titsjob, X-Ray, Hospital, School, Rape, Toys, Oral sex
Серии: 1-3 of 3
Продолжительность: 3х~17 min
Цензура: Есть

Озвучка: Японская (Оригинальная)

Режиссер: Kokubunji Sousuke
Студия: ChiChi No Ya

Описание RUS: Первый эпизод Bakunyuu Bomb повествует нам о пышногрудой сексуальной медсестре, которая с большим удовольствием занимается сексом с пациентами клиники. Второй эпизод рассказывает нам историю о домохозяйке, которая не смогла расплатится по долгам, теперь она расплачивается другим способом. Третий эпизод об учительнице, которую сексуально домогаются её ученики и которая даже не пытается сопротивляться, а получает от этого удовольствие.

Описание ENG: Ep1 - Tachibana Kaoru is a nurse at Yamane Sougou Hospital. She possesses extremely big breasts and high libido. Whether it's while checking temperatures or working the night shift, she is a dedicated nurse who allows patients to use her body as they please. Whatever a patient's fancy, she will do.

Ep2 - Shiina Misaki is a normal housewife and mother of two. However, she is severely myopic. One day, her landlord takes advantage of that condition and transfers a huge amount of debt to her. As she does not have sufficient money, she is forced to use her body to service the debt.

Ep3 - The prideful and well-endowed teacher Wakatsuki Risa gathers the gaze of male students everywhere she goes within the school. However, she masturbates chronically and is discovered by some students. Blackmailed, she submits to their desires. Trained into becoming sex toy, she is even used by the janitor and school principal.

Информационные ссылки: AniDB - MAL - World Art - ХентайМаг

Качество видео: 3x DVD5
Формат видео: DVD Video
Видео кодек: MPEG2
Аудио кодек: AC3
Видео: 720х480, (16:9), 29,970 кадров/сек, ~ 6000 Кбит/сек, NTSC
Аудио: JAP, AC-3, 2 канала, 192 Кбит/сек, 48,0 КГц


Общее
Полное имя : J:\VIDEO_TS\VTS_01_1.VOB
Формат : MPEG-PS
Размер файла : 786 Мбайт
Продолжительность : 17 м.
Режим общего битрейта : Переменный
Общий поток : 6371 Кбит/сек

Видео
Идентификатор : 224 (0xE0)
Формат : MPEG Video
Версия формата : Version 2
Профиль формата : Main@Main
Параметр BVOP формата : Да
Параметр матрицы формата : Выборочная
Параметр GOP формата : M=3, N=15
Продолжительность : 17 м.
Вид битрейта : Переменный
Битрейт : 6052 Кбит/сек
Максимальный битрейт : 7700 Кбит/сек
Ширина : 720 пикселей
Высота : 480 пикселей
Соотношение сторон : 16:9
Частота кадров : 29,970 кадров/сек
Стандарт вещания : NTSC
Цветовое пространство : YUV
Субдискретизация насыщенности : 4:2:0
Битовая глубина : 8 бит
Тип развёртки : Чересстрочная
Порядок развёртки : Нижнее поле первое
Метод сжатия : С потерями
Бит/(Пиксели*Кадры) : 0.584
Временной код первого кадра : 01:00:00;00
Оригинал временного кода : Group of pictures header
Размер потока : 747 Мбайт (95%)
Основные цвета : BT.601 NTSC
Характеристики трансфера : BT.601
Коэффициенты матрицы : BT.601

Аудио
Идентификатор : 189 (0xBD)-128 (0x80)
Формат : AC-3
Формат/Информация : Audio Coding 3
Расширение режима : CM (complete main)
Параметр Endianness формата : Big
Режим смешивания : DVD-Video
Продолжительность : 17 м.
Вид битрейта : Постоянный
Битрейт : 192 Кбит/сек
Каналы : 2 канала
Расположение каналов : Front: L R
Частота : 48,0 КГц
Битовая глубина : 16 бит
Метод сжатия : С потерями
Размер потока : 23,7 Мбайт (3%)

Меню



Трекер:  [ 21-Авг-2013 17:58 ]

  

Скачать .torrent

Размер .torrent файла 15 KB


Размер: 2.84 GB
Хэш (hash) релиза: 6885a80dc7a8a46c603b8458bee3313268f83e68

Торренты, похожие на Bakunyuu Bomb Exploding Tits BOMB скачать торрент

Форум Название Автор Размер S L Добавлен
Хентай, порно и эротические мультфильмы ·· Bakunyuu Bomb / Exploding Tits BOMB / Взрывающийся бомбо-бюст (Kokubunji Sousuke, Ushijima Yuuji) (ep 1-3 of 3) [cen] [2009 г., Gigantic Breasts, Nurses, Group Sex, Anal, DVDRip] [jap / eng / rus] Galfimbul 774885855739 MB 0 0 1457445681

17:01

8-Мар-16

bot

Топик был перенесен в форум Хентай | С цензурой

Перенес LinGr

Хотите добавить комментарий к записи скачать торрент Bakunyuu Bomb Exploding Tits BOMB

!Обратная связь