Скачать через торрент музыку The Best Of Bollywood - 15 Classic Tracks From The Indian Cinema - 2003, FLAC бесплатно без регистрации torrent

Если у вас наблюдаются проблемы со скриншотами, переходом по ссылками, скачиванием торрентов - проблемы в блокировщике рекламы AdBlock. #хорошегоДня!


Статистика раздачи
Размер:  497 MB   |    Зарегистрирован:  4 года 2 месяца   |    .torrent скачан:  42 раза   |   
Раздают:  1  
   
Загрузка...
 
Автор Сообщение

Polarnik

avatar Polarnik


VA / VA

Название альбома: The Best Of Bollywood - 15 Classic Tracks From The Indian Cinema
Жанр: Soundtrack
Композитор: VA
Год выпуска диска: 2003
Страна-производитель диска: EU
Издатель (лейбл): Universal Music
Аудиокодек: FLAC (*.flac)
Тип рипа: image+.cue
Битрейт аудио: lossless
Продолжительность: 1:18:26
Источник: собственный рип
Треклист:
Sapna - Pyar Do Pyar Lo (5:29)
Kanchan, Amit Kumar & Chorus - Laila O Laila (4:30)
Lata Mangeshkar - Tere Sang Pyar Main (3:37)
Kishore Kumar & Lata Mangeshkar - Hey Maine (4:03)
Kishore Kumar, Usha Khanna & Chorus - Pal Bhar Ke Liye (4:45)
Lata Mangeshkar - Ye Raatain (5:37)
Kishore Kumar - Dil Aaj Shair Hai (3:29)
Lata Mangeshkar - Wada Na Tod (5:58)
Rahul Dev Burman - Mehbooba Mehbooba (3:57)
Pt. Birju Maharaj, Kavita Krishnamurthy & Madhuri Dixit - Kaahe Chhed (5:22)
Kanchan, Manhar & Anand - Hum Tumhen Chahte Hain (7:15)
Alka Yagnik - Badi Mushkil (6:03)
Chitra - Kenha Hi Kya (5:52)
Sonu Nigham & Sunidhi Chauhan - Do Pyaar (4:57)
Alka Yagnik, Babul Supriyo & Chorus - Chori Chori (7:30)
Exact Audio Copy V1.0 beta 3 from 29. August 2011

Отчёт EAC об извлечении, выполненном 20. августа 2013, 23:04

Various / The Best Of Bollywood: 15 Classic Tracks From The Indian Cinema

Дисковод: OPTIARC DVD RW AD-5670S Adapter: 1 ID: 0

Режим чтения : ДостоверностьИспользование точного потока : ДаОтключение кэша аудио : ДаИспользование указателей C2 : Нет

Коррекция смещения при чтении : 48Способность читать области Lead-in и Lead-out : НетЗаполнение пропущенных сэмплов тишиной : ДаУдаление блоков с тишиной в начале и конце : НетПри вычислениях CRC использовались нулевые сэмплы : ДаИнтерфейс : Встроенный Win32-интерфейс для Win NT/2000

Выходной формат : Пользовательский кодировщикВыбранный битрейт : 896 kBit/sКачество : ВысокийДобавление ID3-тега : НетУтилита сжатия : C:\Program Files (x86)\Exact Audio Copy\FLAC\FLAC.EXEДополнительные параметры : -6 -V -T "ARTIST=%artist%" -T "TITLE=%title%" -T "ALBUM=%albumtitle%" -T "DATE=%year%" -T "TRACKNUMBER=%tracknr%" -T "GENRE=%genre%" -T "COMMENT=%comment%" -T "BAND=%albuminterpret%" -T "ALBUMARTIST=%albuminterpret%" -T "COMPOSER=%composer%" %haslyrics%--tag-from-file=LYRICS="%lyricsfile%"%haslyrics% -T "DISCNUMBER=%cdnumber%" -T "TOTALDISCS=%totalcds%" -T "TOTALTRACKS=%numtracks%" %hascover%--picture="%coverfile%"%hascover% %source% -o %dest%

TOC извлечённого CD

Трек | Старт | Длительность | Начальный сектор | Конечный сектор --------------------------------------------------------------------- 1 | 0:00.00 | 5:28.68 | 0 | 24667 2 | 5:28.68 | 4:30.10 | 24668 | 44927 3 | 9:59.03 | 3:37.06 | 44928 | 61208 4 | 13:36.09 | 4:02.68 | 61209 | 79426 5 | 17:39.02 | 4:45.05 | 79427 | 100806 6 | 22:24.07 | 5:37.09 | 100807 | 126090 7 | 28:01.16 | 3:29.09 | 126091 | 141774 8 | 31:30.25 | 5:58.28 | 141775 | 168652 9 | 37:28.53 | 3:57.25 | 168653 | 186452 10 | 41:26.03 | 5:22.27 | 186453 | 210629 11 | 46:48.30 | 7:15.06 | 210630 | 243260 12 | 54:03.36 | 6:03.21 | 243261 | 270506 13 | 60:06.57 | 5:52.32 | 270507 | 296938 14 | 65:59.14 | 4:57.21 | 296939 | 319234 15 | 70:56.35 | 7:29.55 | 319235 | 352964

Характеристики диапазона извлечения и сообщения об ошибках

Выбранный диапазон

Имя файла C:\Users\---\Desktop\Various - The Best Of Bollywood- 15 Classic Tracks From The Indian Cinema\Various - The Best Of Bollywood - 15 Classic Tracks From The Indian Cinema.wav

Пиковый уровень 99.9 % Скорость извлечения 2.7 X Качество диапазона 100.0 % CRC копии 80850070 Копирование... OK

Ошибок не произошло

AccurateRip: сводка

Трек 1 отсутствует в базе данныхТрек 2 отсутствует в базе данныхТрек 3 отсутствует в базе данныхТрек 4 отсутствует в базе данныхТрек 5 отсутствует в базе данныхТрек 6 отсутствует в базе данныхТрек 7 отсутствует в базе данныхТрек 8 отсутствует в базе данныхТрек 9 отсутствует в базе данныхТрек 10 отсутствует в базе данныхТрек 11 отсутствует в базе данныхТрек 12 отсутствует в базе данныхТрек 13 отсутствует в базе данныхТрек 14 отсутствует в базе данныхТрек 15 отсутствует в базе данных

Ни одного трека нет в базе AccurateRip

Конец отчёта

---- CUETools DB Plugin V2.1.3

[CTDB TOCID: KhDpjRCAh.upfzpl6WhWEhBFUUo-] disk not present in database, Submit result: KhDpjRCAh.upfzpl6WhWEhBFUUo- has been uploaded

==== Контрольная сумма отчёта 10685512DEE94EF5E803ED7339A3785202534161E1B9A66644765DBCDD74AC15 ====
REM GENRE IndianREM DATE 2003REM DISCID CB12620FREM COMMENT ExactAudioCopy v1.0b3PERFORMER "Various"TITLE "The Best Of Bollywood: 15 Classic Tracks From The Indian Cinema"FILE "Various - 2003 - The Best Of Bollywood - 15 Classic Tracks From The Indian Cinema.flac" WAVE TRACK 01 AUDIO TITLE "Pyar Do Pyar Lo" PERFORMER "Sapna" FLAGS DCP INDEX 01 00:00:00 TRACK 02 AUDIO TITLE "Laila O Laila" PERFORMER "Kanchan, Amit Kumar & Chorus" FLAGS DCP INDEX 00 05:26:68 INDEX 01 05:28:68 TRACK 03 AUDIO TITLE "Tere Sang Pyar Main" PERFORMER "Lata Mangeshkar" FLAGS DCP INDEX 00 09:57:03 INDEX 01 09:59:03 TRACK 04 AUDIO TITLE "Hey Maine" PERFORMER "Kishore Kumar & Lata Mangeshkar" FLAGS DCP INDEX 00 13:34:09 INDEX 01 13:36:09 TRACK 05 AUDIO TITLE "Pal Bhar Ke Liye" PERFORMER "Kishore Kumar, Usha Khanna & Chorus" FLAGS DCP INDEX 00 17:37:02 INDEX 01 17:39:02 TRACK 06 AUDIO TITLE "Ye Raatain" PERFORMER "Lata Mangeshkar" FLAGS DCP INDEX 00 22:22:07 INDEX 01 22:24:07 TRACK 07 AUDIO TITLE "Dil Aaj Shair Hai" PERFORMER "Kishore Kumar" FLAGS DCP INDEX 00 27:59:16 INDEX 01 28:01:16 TRACK 08 AUDIO TITLE "Wada Na Tod" PERFORMER "Lata Mangeshkar" FLAGS DCP INDEX 00 31:28:25 INDEX 01 31:30:25 TRACK 09 AUDIO TITLE "Mehbooba Mehbooba" PERFORMER "Rahul Dev Burman" FLAGS DCP INDEX 00 37:26:53 INDEX 01 37:28:53 TRACK 10 AUDIO TITLE "Kaahe Chhed" PERFORMER "Pt. Birju Maharaj, Kavita Krishnamurthy & Madhuri Dixit" FLAGS DCP INDEX 00 41:24:03 INDEX 01 41:26:03 TRACK 11 AUDIO TITLE "Hum Tumhen Chahte Hain" PERFORMER "Kanchan, Manhar & Anand" FLAGS DCP INDEX 00 46:46:30 INDEX 01 46:48:30 TRACK 12 AUDIO TITLE "Badi Mushkil" PERFORMER "Alka Yagnik" FLAGS DCP INDEX 00 54:01:36 INDEX 01 54:03:36 TRACK 13 AUDIO TITLE "Kenha Hi Kya" PERFORMER "Chitra" FLAGS DCP INDEX 00 60:04:57 INDEX 01 60:06:57 TRACK 14 AUDIO TITLE "Do Pyaar" PERFORMER "Sonu Nigham & Sunidhi Chauhan" FLAGS DCP INDEX 00 65:57:14 INDEX 01 65:59:14 TRACK 15 AUDIO TITLE "Chori Chori" PERFORMER "Alka Yagnik, Babul Supriyo & Chorus" FLAGS DCP INDEX 00 70:54:35 INDEX 01 70:56:35


Трекер:  [ 25-Сен-2013 08:33 ]

  

Скачать .torrent

Размер .torrent файла 20 KB


Размер: 497 MB
Хэш (hash) релиза: d8f164ee2994a09ea3be7f493ad7408bcd7b87d0

Еще никто не оставлял запись к записи скачать торрент The Best Of Bollywood - 15 Classic Tracks From The Indian Cinema - 2003, FLAC . Будь первым!

!Обратная связь