Скачать через торрент музыку DJ Tiesto - Adagio for strings бесплатно без регистрации torrent

Если у вас наблюдаются проблемы со скриншотами, переходом по ссылками, скачиванием торрентов - проблемы в блокировщике рекламы AdBlock. #хорошегоДня!


Статистика раздачи
Размер:  79 MB   |    Зарегистрирован:  5 лет 10 месяцев   |    .torrent скачан:  35 раз   |   
Раздают:  1  
   
Загрузка...
 
Автор Сообщение

Galfimbul

avatar Galfimbul


Dj Tiesto - Adagio for strings (Live in concert)

Год выпуска: 2004
Жанр: trance
Продолжительность: 3:18

Режиссер: Dj Tiesto

В ролях: Dj Tiesto

Качество:DVDRip
general:
Format : AVI
Format/Info : Audio Video Interleave
File size : 79.1 MiB
Duration : 3mn 18s
Overall bit rate : 3 338 Kbps
Writing application : Lavf50.6.0
Writing library : VirtualDub build 30009/release

video:
Format : MPEG-4 Visual
Format profile : AdvancedSimple@L5
Format settings, BVOP : Yes
Format settings, QPel : No
Format settings, GMC : No warppoints
Format settings, Matrix : Default (H.263)
Muxing mode : Packed bitstream
Codec ID : XVID
Codec ID/Hint : XviD
Duration : 3mn 18s
Bit rate : 3 165 Kbps
Width : 768 pixels
Height : 576 pixels
Display aspect ratio : 4:3
Frame rate : 25.000 fps
Resolution : 24 bits
Colorimetry : 4:2:0
Scan type : Progressive
Bits/(Pixel*Frame) : 0.286
Stream size : 75.0 MiB (95%)
Writing library : XviD 1.2.0.dev47 (UTC 2006-11-01)

audio:
Format : MPEG Audio
Format version : Version 1
Format profile : Layer 3
Codec ID : 55
Codec ID/Hint : MP3
Duration : 3mn 18s
Bit rate mode : Constant
Bit rate : 160 Kbps
Channel(s) : 2 channels
Sampling rate : 44.1 KHz
Resolution : 16 bits
Stream size : 3.78 MiB (5%)
Alignment : Aligned on interleaves
Interleave, duration : 26 ms (0.65 video frame)
Interleave, preload duration : 522 ms


Трекер:  [ 24-Ноя-2011 17:53 ]

  

Скачать .torrent

Размер .torrent файла 13 KB


Размер: 79 MB
Хэш (hash) релиза: bf02f6e66dd8b3229ae43d1598ce85a3ca2d5c4b

Еще никто не оставлял запись к записи скачать торрент DJ Tiesto - Adagio for strings . Будь первым!

!Обратная связь