Скачать через торрент музыку Интерьвью с Simon Posford перед выступлением Shpongle в клубе Молоко 12.12.2009 бесплатно без регистрации torrent

Если у вас наблюдаются проблемы со скриншотами, переходом по ссылками, скачиванием торрентов - проблемы в блокировщике рекламы AdBlock. #хорошегоДня!


Статистика раздачи
Размер:  232 MB   |    Зарегистрирован:  5 лет 10 месяцев   |    .torrent скачан:  32 раза   |   
Раздают:  1  
   
Загрузка...
 
Автор Сообщение

Galfimbul

avatar Galfimbul


Интерьвью с Simon Posford перед выступлением Shpongle в клубе Молоко 12.12.2009

Год выпуска: 2009
Жанр: Интервью
Продолжительность: 25.52 мин.

В ролях: Simon Posford, интервьюер Ксения Ермакова

Описание: Данное интерьвью с Simon Posford было записано перед выступлением в клубе Молоко 12.12.2009 снято специально для Hallucinogen.ru. На просторах интернета оно выставлено только на YouTube, порезанное на куски, а попасть на сам Hallucinogen.ru не так просто. Пришлось монтировать для полноты ощущения.

Качество: IPTVRip
Формат: MPEG
Видео кодек: MPEG4
Аудио кодек: AAC
Видео: Video: MPEG4 Video 640x360, 29.970 fps, 1 155 Kbps
Аудио: Audio: AAC 44100Hz stereo 1411kbps
Complete name :Интерьвью для hallucinogen.ru клуб молоко 20.12.2009.mp4
Format : MPEG-4
Format profile : Base Media / Version 2
Codec ID : mp42
File size : 232 MiB
Duration : 25mn 52s
Overall bit rate : 1 253 Kbps
Encoded date : UTC 2010-05-08 10:29:23
Tagged date : UTC 2010-05-08 10:29:23

Video
ID : 201
Format : MPEG-4 Visual
Format profile : Simple@L1
Format settings, BVOP : No
Format settings, QPel : No
Format settings, GMC : No warppoints
Format settings, Matrix : Default (H.263)
Codec ID : 20
Duration : 25mn 51s
Bit rate mode : Variable
Bit rate : 1 155 Kbps
Maximum bit rate : 3 626 Kbps
Width : 640 pixels
Height : 360 pixels
Display aspect ratio : 16:9
Frame rate mode : Variable
Frame rate : 29.970 fps
Minimum frame rate : 29.960 fps
Maximum frame rate : 29.970 fps
Resolution : 8 bits
Colorimetry : 4:2:0
Scan type : Progressive
Bits/(Pixel*Frame) : 0.167
Stream size : 214 MiB (92%)
Encoded date : UTC 2010-05-08 10:29:23
Tagged date : UTC 2010-05-08 10:29:44

Audio
ID : 101
Format : AAC
Format/Info : Advanced Audio Codec
Format version : Version 4
Format profile : LC
Format settings, SBR : No
Codec ID : 40
Duration : 25mn 52s
Bit rate mode : Variable
Bit rate : 96.0 Kbps
Nominal bit rate : 97.9 Kbps
Maximum bit rate : 117 Kbps
Channel(s) : 2 channels
Channel positions : Front: L R
Sampling rate : 44.1 KHz
Stream size : 17.9 MiB (8%)
Encoded date : UTC 2010-05-08 10:29:27
Tagged date : UTC 2010-05-08 10:29:44
Всё интервью проходит в двух данных планах.


Трекер:  [ 24-Ноя-2011 17:56 ]

  

Скачать .torrent

Размер .torrent файла 18 KB


Размер: 232 MB
Хэш (hash) релиза: 6e031f115990d23491f46f5da88fe6d0042ffb3a

Еще никто не оставлял запись к записи скачать торрент Интерьвью с Simon Posford перед выступлением Shpongle в клубе Молоко 12.12.2009 . Будь первым!

!Обратная связь