Скачать через торрент музыку Jeffree Star - Get Away With Murder бесплатно без регистрации torrent

Если у вас наблюдаются проблемы со скриншотами, переходом по ссылками, скачиванием торрентов - проблемы в блокировщике рекламы AdBlock. #хорошегоДня!


Статистика раздачи
Размер:  193 MB   |    Зарегистрирован:  5 лет 10 месяцев   |    .torrent скачан:  25 раз   |   
Раздают:  1  
   
Загрузка...
 
Автор Сообщение

Galfimbul

avatar Galfimbul


Jeffree Star - Get Away With Murder
Год выпуска: 2010
Страна: USA, Popsicle Records
Жанр: Dance/Electronic/Rock/Pop
Продолжительность: 00:03:39

Описание: Первый клип эпатажной звезды. Promo Only

Качество: DVD-VOB
Формат: MPEG -PS
Видео кодек: MPEG Video
Аудио кодек: PCM
Видео: NTSC 720x480 29.97fps 5 672 Kbps
Аудио: 48000Hz stereo 1536 kbps
General
Complete name : C:\Documents and Settings\Administrator\My Documents\My Music\Jeffree Star\Jeffree Star - Get Away With Murder [Promo Only].vob
Format : MPEG-PS
File size : 193 MiB
Duration : 3mn 39s
Overall bit rate : 7 354 Kbps
Writing library :
Video #224
ID : 224 (0xE0)
Format : MPEG Video
Format version : Version 2
Format profile : Main@Main
Format settings, BVOP : Yes
Format settings, Matrix : Default
Duration : 3mn 39s
Bit rate mode : Variable
Bit rate : 5 672 Kbps
Nominal bit rate : 8 000 Kbps
Width : 720 pixels
Height : 480 pixels
Display aspect ratio : 4:3
Frame rate : 29.970 fps
Standard : NTSC
Color space : YUV
Chroma subsampling : 4:2:0
Bit depth : 8 bits
Scan type : Interlaced
Scan order : Top Field First
Bits/(Pixel*Frame) : 0.548
Stream size : 149 MiB (77%)
Writing library :
Audio #160
ID : 160 (0xA0)
Format : PCM
Format settings, Endianness : Big
Format settings, Sign : Signed
Muxing mode : DVD-Video
Duration : 3mn 39s
Bit rate mode : Constant
Bit rate : 1 536 Kbps
Channel(s) : 2 channels
Channel positions : Front: L R
Sampling rate : 48.0 KHz
Bit depth : 16 bits
Stream size : 40.3 MiB (21%)


Трекер:  [ 24-Ноя-2011 18:21 ]

  

Скачать .torrent

Размер .torrent файла 15 KB


Размер: 193 MB
Хэш (hash) релиза: c3fa7fc4cf9f0acdf0a44a8ef5fe97427f6111c0

Еще никто не оставлял запись к записи скачать торрент Jeffree Star - Get Away With Murder . Будь первым!

!Обратная связь