Скачать через торрент музыку Serge Devant - Ghost бесплатно без регистрации torrent

Если у вас наблюдаются проблемы со скриншотами, переходом по ссылками, скачиванием торрентов - проблемы в блокировщике рекламы AdBlock. #хорошегоДня!


Статистика раздачи
Размер:  85 MB   |    Зарегистрирован:  5 лет 10 месяцев   |    .torrent скачан:  40 раз   |   
Раздают:  1  
   
Загрузка...
 
Автор Сообщение

Galfimbul

avatar Galfimbul


Serge Devant - Ghost (feat. Hadley)

Страна: USA
Жанр: House
Продолжительность: 00:04:47
Год выпуска: 2010
Источник: собственный рип

Качество: DVDRip
Контейнер: AVI
Видео кодек: XviD
Аудио кодек: AC3
Видео: Xvid 720x400 16:9 2152kbps 25.00fps
Аудио: Dolby AC3 320kbps 48000Hz stereo

Описание: Загадочный клип от Serge Devant и Hadley на песню "Ghost".
 
GeneralComplete name : C:\Documents and Settings\Admin\Мои документы\Torrents\Serge Devant - Ghost (feat. Hadley).aviFormat : AVIFormat/Info : Audio Video InterleaveFile size : 84.9 MiBDuration : 4mn 47sOverall bit rate : 2 482 KbpsWriting application : VirtualDubMod 1.5.10.2 (build 2540/release)Writing library : VirtualDubMod build 2540/release

VideoID : 0Format : MPEG-4 VisualFormat profile : Advanced Simple@L5Format settings, BVOP : YesFormat settings, QPel : NoFormat settings, GMC : No warppointsFormat settings, Matrix : Default (MPEG)Codec ID : XVIDCodec ID/Hint : XviDDuration : 4mn 47sBit rate : 2 152 KbpsWidth : 720 pixelsHeight : 400 pixelsDisplay aspect ratio : 16:9Frame rate : 25.000 fpsColor space : YUVChroma subsampling : 4:2:0Bit depth : 8 bitsScan type : ProgressiveCompression mode : LossyBits/(Pixel*Frame) : 0.299Stream size : 73.6 MiB (87%)Writing library : XviD 1.2.1 (UTC 2008-12-04)

AudioID : 1Format : AC-3Format/Info : Audio Coding 3Mode extension : CM (complete main)Codec ID : 2000Duration : 4mn 47sBit rate mode : ConstantBit rate : 320 KbpsChannel(s) : 2 channelsChannel positions : Front: L RSampling rate : 48.0 KHzBit depth : 16 bitsCompression mode : LossyStream size : 10.9 MiB (13%)Alignment : Aligned on interleavesInterleave, duration : 40 ms (1.00 video frame)Interleave, preload duration : 512 ms


Трекер:  [ 24-Ноя-2011 18:30 ]

  

Скачать .torrent

Размер .torrent файла 13 KB


Размер: 85 MB
Хэш (hash) релиза: 671db004300207b4d66aa0c9e95960389d22d3cc

Торренты, похожие на Serge Devant - Ghost скачать торрент

Форум Название Автор Размер S L Добавлен
Электронная музыка (video) ·· Serge Devant Feat. Hadley - Ghost [2010, House, DVD] Galfimbul 346947588331 MB 0 0 1294845865

18:24

12-Янв-11

Электронная музыка (video) ·· Serge Devant - Addicted.Ghost.Dice(Европа плюс Live /Europa Plus Live 2010) [2010 г., House, SATRip] Galfimbul 367370244350 MB 0 0 1294845635

18:20

12-Янв-11

Еще никто не оставлял запись к записи скачать торрент Serge Devant - Ghost . Будь первым!

!Обратная связь