Скачать через торрент музыку Гадкий я 2 Despicable Me 2 бесплатно без регистрации torrent

Если у вас наблюдаются проблемы со скриншотами, переходом по ссылками, скачиванием торрентов - проблемы в блокировщике рекламы AdBlock. #хорошегоДня!


Статистика раздачи
Размер:  352 MB   |    Зарегистрирован:  4 года   |    .torrent скачан:  47 раз   |   
Раздают:  1  
   
Загрузка...
 
Автор Сообщение

Polarnik

avatar Polarnik


Гадкий я 2 / Despicable Me 2


Жанр: Score / Soundtrack || Композитор: Heitor Pereira and Pharrell Williams || Год выпуска диска: 2013 || Страна-производитель диска: США || Аудио кодек: FLAC (*.flac) || Тип рипа: tracks+.cue || Битрейт аудио: lossless || Продолжительность: 01:01:35 || Источник-релизер: Shadow || Наличие сканов в содержимом раздачи: нет
Треклист:
01. CeeLo Green - Scream [03:41]
02. The Minions - Another Irish Drinking Song [00:39]
03. Pharrell Williams - Just A Cloud Away [02:56]
04. Pharrell Williams - Happy [03:53]
05. The Minions - I Swear [01:38]
06. The Minions - Y.M.C.A. [02:55]
07. Pharrell Williams - Fun, Fun, Fun [03:26]
08. Pharrell Williams - Despicable Me [04:14]
09. Heitor Pereira - PX-41 Labs [02:06]
10. Heitor Pereira - The Fairy Party [01:27]
11. Heitor Pereira - Lucy and the AVL [05:39]
12. Heitor Pereira - Goodbye Nefario [01:27]
13. Heitor Pereira - Time for Bed [01:27]
14. Heitor Pereira - Break-in [03:00]
15. Heitor Pereira - Stalking Floyd Eaglesan [01:35]
16. Heitor Pereira - Moving To Australia [03:09]
17. Heitor Pereira - Going to Save the World [01:25]
18. Heitor Pereira - El Macho [01:27]
19. Heitor Pereira - Jillian [00:47]
20. Heitor Pereira - Take Her Home [01:29]
21. Heitor Pereira - El Macho''s Lair [03:32]
22. Heitor Pereira - Home Invasion [01:57]
23. Heitor Pereira - The Big Battle [07:23]
24. The Minions - Ba Do Bleep [00:13]
Exact Audio Copy V1.0 beta 3 from 29. August 2011

EAC extraction logfile from 16. August 2013, 23:39

Various / Despicable Me 2

Used drive : TSSTcorpDVD+-RW TS-L633B Adapter: 0 ID: 1

Read mode : SecureUtilize accurate stream : YesDefeat audio cache : YesMake use of C2 pointers : No

Read offset correction : 6Overread into Lead-In and Lead-Out : NoFill up missing offset samples with silence : YesDelete leading and trailing silent blocks : NoNull samples used in CRC calculations : YesUsed interface : Native Win32 interface for Win NT & 2000Gap handling : Appended to previous track

Used output format : User Defined EncoderSelected bitrate : 1024 kBit/sQuality : HighAdd ID3 tag : NoCommand line compressor : C:\Program Files\FLAC\flac.exeAdditional command line options : -8 -V -T "ARTIST=%artist%" -T "TITLE=%title%" -T "ALBUM=%albumtitle%" -T "DATE=%year%" -T "TRACKNUMBER=%tracknr%" -T "GENRE=%genre%" -T "PERFORMER=%albuminterpret%" -T "COMPOSER=%composer%" %haslyrics%--tag-from-file=LYRICS="%lyricsfile%"%haslyrics% -T "ALBUMARTIST=%albumartist%" -T "DISCNUMBER=%cdnumber%" -T "TOTALDISCS=%totalcds%" -T "TOTALTRACKS=%numtracks%" -T "COMMENT=%comment%" %source% -o %dest%

TOC of the extracted CD

Track | Start | Length | Start sector | End sector --------------------------------------------------------- 1 | 0:00.00 | 3:41.70 | 0 | 16644 2 | 3:41.70 | 0:39.05 | 16645 | 19574 3 | 4:21.00 | 2:56.06 | 19575 | 32780 4 | 7:17.06 | 3:53.23 | 32781 | 50278 5 | 11:10.29 | 1:38.16 | 50279 | 57644 6 | 12:48.45 | 2:55.22 | 57645 | 70791 7 | 15:43.67 | 3:26.07 | 70792 | 86248 8 | 19:09.74 | 4:14.54 | 86249 | 105352 9 | 23:24.53 | 2:06.62 | 105353 | 114864 10 | 25:31.40 | 1:27.09 | 114865 | 121398 11 | 26:58.49 | 5:39.36 | 121399 | 146859 12 | 32:38.10 | 1:27.36 | 146860 | 153420 13 | 34:05.46 | 1:27.00 | 153421 | 159945 14 | 35:32.46 | 3:00.20 | 159946 | 173465 15 | 38:32.66 | 1:35.01 | 173466 | 180591 16 | 40:07.67 | 3:09.58 | 180592 | 194824 17 | 43:17.50 | 1:25.66 | 194825 | 201265 18 | 44:43.41 | 1:27.12 | 201266 | 207802 19 | 46:10.53 | 0:47.33 | 207803 | 211360 20 | 46:58.11 | 1:29.30 | 211361 | 218065 21 | 48:27.41 | 3:32.52 | 218066 | 234017 22 | 52:00.18 | 1:57.56 | 234018 | 242848 23 | 53:57.74 | 7:23.19 | 242849 | 276092 24 | 61:21.18 | 0:14.13 | 276093 | 277155

Track 1

Filename C:\EAC Rips\Various Artists - Despicable Me 2 (2013) [FLAC]\01 - CeeLo Green - Scream.wav

Pre-gap length 0:00:02.00

Peak level 97.7 % Extraction speed 2.4 X Track quality 100.0 % Test CRC D348D296 Copy CRC D348D296 Accurately ripped (confidence 2) [0CD74866] (AR v2) Copy OK

Track 2

Filename C:\EAC Rips\Various Artists - Despicable Me 2 (2013) [FLAC]\02 - The Minions - Another Irish Drinking Song.wav

Peak level 97.7 % Extraction speed 1.5 X Track quality 100.0 % Test CRC 75CAA978 Copy CRC 75CAA978 Accurately ripped (confidence 2) [9C745486] (AR v2) Copy OK

Track 3

Filename C:\EAC Rips\Various Artists - Despicable Me 2 (2013) [FLAC]\03 - Pharrell Williams - Just A Cloud Away.wav

Peak level 97.7 % Extraction speed 2.6 X Track quality 100.0 % Test CRC C205E430 Copy CRC C205E430 Accurately ripped (confidence 2) [4F446044] (AR v2) Copy OK

Track 4

Filename C:\EAC Rips\Various Artists - Despicable Me 2 (2013) [FLAC]\04 - Pharrell Williams - Happy.wav

Peak level 96.6 % Extraction speed 2.9 X Track quality 100.0 % Test CRC FE366A14 Copy CRC FE366A14 Accurately ripped (confidence 2) [4F4D7A32] (AR v2) Copy OK

Track 5

Filename C:\EAC Rips\Various Artists - Despicable Me 2 (2013) [FLAC]\05 - The Minions - I Swear.wav

Peak level 96.6 % Extraction speed 2.6 X Track quality 100.0 % Test CRC 559E2996 Copy CRC 559E2996 Accurately ripped (confidence 2) [1516101A] (AR v2) Copy OK

Track 6

Filename C:\EAC Rips\Various Artists - Despicable Me 2 (2013) [FLAC]\06 - The Minions - Y.M.C.A..wav

Peak level 97.7 % Extraction speed 2.4 X Track quality 99.9 % Test CRC 397DE726 Copy CRC 397DE726 Accurately ripped (confidence 2) [16CFE36F] (AR v2) Copy OK

Track 7

Filename C:\EAC Rips\Various Artists - Despicable Me 2 (2013) [FLAC]\07 - Pharrell Williams - Fun, Fun, Fun.wav

Peak level 95.5 % Extraction speed 3.0 X Track quality 100.0 % Test CRC 999DC0F0 Copy CRC 999DC0F0 Accurately ripped (confidence 2) [CC0F3EC4] (AR v2) Copy OK

Track 8

Filename C:\EAC Rips\Various Artists - Despicable Me 2 (2013) [FLAC]\08 - Pharrell Williams - Despicable Me.wav

Peak level 93.3 % Extraction speed 3.3 X Track quality 100.0 % Test CRC F25365D9 Copy CRC F25365D9 Accurately ripped (confidence 2) [C6037329] (AR v2) Copy OK

Track 9

Filename C:\EAC Rips\Various Artists - Despicable Me 2 (2013) [FLAC]\09 - Heitor Pereira - PX-41 Labs.wav

Peak level 98.5 % Extraction speed 2.4 X Track quality 99.9 % Test CRC 929C1B11 Copy CRC 929C1B11 Accurately ripped (confidence 2) [DD065D41] (AR v2) Copy OK

Track 10

Filename C:\EAC Rips\Various Artists - Despicable Me 2 (2013) [FLAC]\10 - Heitor Pereira - The Fairy Party.wav

Peak level 98.3 % Extraction speed 2.8 X Track quality 100.0 % Test CRC 7E8544C8 Copy CRC 7E8544C8 Accurately ripped (confidence 2) [9602C137] (AR v2) Copy OK

Track 11

Filename C:\EAC Rips\Various Artists - Despicable Me 2 (2013) [FLAC]\11 - Heitor Pereira - Lucy and the AVL.wav

Peak level 98.4 % Extraction speed 3.8 X Track quality 100.0 % Test CRC 7218C323 Copy CRC 7218C323 Accurately ripped (confidence 2) [52B275FA] (AR v2) Copy OK

Track 12

Filename C:\EAC Rips\Various Artists - Despicable Me 2 (2013) [FLAC]\12 - Heitor Pereira - Goodbye Nefario.wav

Peak level 98.5 % Extraction speed 3.2 X Track quality 100.0 % Test CRC 20D2A435 Copy CRC 20D2A435 Accurately ripped (confidence 2) [1BDF480D] (AR v2) Copy OK

Track 13

Filename C:\EAC Rips\Various Artists - Despicable Me 2 (2013) [FLAC]\13 - Heitor Pereira - Time for Bed.wav

Peak level 97.6 % Extraction speed 3.2 X Track quality 100.0 % Test CRC 64B1C9D4 Copy CRC 64B1C9D4 Accurately ripped (confidence 2) [A0E43ABD] (AR v2) Copy OK

Track 14

Filename C:\EAC Rips\Various Artists - Despicable Me 2 (2013) [FLAC]\14 - Heitor Pereira - Break-in.wav

Peak level 98.7 % Extraction speed 3.0 X Track quality 99.9 % Test CRC 0F4CE536 Copy CRC 0F4CE536 Accurately ripped (confidence 2) [841F265D] (AR v2) Copy OK

Track 15

Filename C:\EAC Rips\Various Artists - Despicable Me 2 (2013) [FLAC]\15 - Heitor Pereira - Stalking Floyd Eaglesan.wav

Peak level 98.1 % Extraction speed 3.5 X Track quality 100.0 % Test CRC 6DE4D786 Copy CRC 6DE4D786 Accurately ripped (confidence 2) [23AB33A7] (AR v2) Copy OK

Track 16

Filename C:\EAC Rips\Various Artists - Despicable Me 2 (2013) [FLAC]\16 - Heitor Pereira - Moving To Australia.wav

Peak level 97.8 % Extraction speed 4.2 X Track quality 100.0 % Test CRC 33A3B4E8 Copy CRC 33A3B4E8 Accurately ripped (confidence 2) [73C98533] (AR v2) Copy OK

Track 17

Filename C:\EAC Rips\Various Artists - Despicable Me 2 (2013) [FLAC]\17 - Heitor Pereira - Going to Save the World.wav

Peak level 97.7 % Extraction speed 3.6 X Track quality 100.0 % Test CRC B6BE15AD Copy CRC B6BE15AD Accurately ripped (confidence 2) [B0FC91C4] (AR v2) Copy OK

Track 18

Filename C:\EAC Rips\Various Artists - Despicable Me 2 (2013) [FLAC]\18 - Heitor Pereira - El Macho.wav

Peak level 97.7 % Extraction speed 3.6 X Track quality 100.0 % Test CRC AF8667C3 Copy CRC AF8667C3 Accurately ripped (confidence 2) [A3059614] (AR v2) Copy OK

Track 19

Filename C:\EAC Rips\Various Artists - Despicable Me 2 (2013) [FLAC]\19 - Heitor Pereira - Jillian.wav

Peak level 97.7 % Extraction speed 1.7 X Track quality 99.7 % Test CRC 46343272 Copy CRC 46343272 Accurately ripped (confidence 2) [69588D85] (AR v2) Copy OK

Track 20

Filename C:\EAC Rips\Various Artists - Despicable Me 2 (2013) [FLAC]\20 - Heitor Pereira - Take Her Home.wav

Peak level 97.7 % Extraction speed 3.7 X Track quality 100.0 % Test CRC 30798CDA Copy CRC 30798CDA Accurately ripped (confidence 2) [2CB05F56] (AR v2) Copy OK

Track 21

Filename C:\EAC Rips\Various Artists - Despicable Me 2 (2013) [FLAC]\21 - Heitor Pereira - El Macho''s Lair.wav

Peak level 97.7 % Extraction speed 4.6 X Track quality 100.0 % Test CRC 35BAFF36 Copy CRC 35BAFF36 Accurately ripped (confidence 2) [061A3C9F] (AR v2) Copy OK

Track 22

Filename C:\EAC Rips\Various Artists - Despicable Me 2 (2013) [FLAC]\22 - Heitor Pereira - Home Invasion.wav

Peak level 98.7 % Extraction speed 4.2 X Track quality 100.0 % Test CRC 188C707A Copy CRC 188C707A Accurately ripped (confidence 2) [1D716989] (AR v2) Copy OK

Track 23

Filename C:\EAC Rips\Various Artists - Despicable Me 2 (2013) [FLAC]\23 - Heitor Pereira - The Big Battle.wav

Peak level 97.7 % Extraction speed 5.3 X Track quality 100.0 % Test CRC 53266BD7 Copy CRC 53266BD7 Accurately ripped (confidence 2) [A2B38F60] (AR v2) Copy OK

Track 24

Filename C:\EAC Rips\Various Artists - Despicable Me 2 (2013) [FLAC]\24 - The Minions - Ba Do Bleep.wav

Peak level 26.8 % Extraction speed 1.5 X Track quality 100.0 % Test CRC 6CD22AA8 Copy CRC 6CD22AA8 Accurately ripped (confidence 2) [C1F33B38] (AR v2) Copy OK

All tracks accurately ripped

No errors occurred

End of status report

---- CUETools DB Plugin V2.1.3

[CTDB TOCID: e9nZPwpWPZXL02m5kmz.YUAIW5E-] found, Submit result: e9nZPwpWPZXL02m5kmz.YUAIW5E- has been confirmed[3711a3c7] (4/4) Accurately ripped

==== Log checksum 44B9DBB2C16F215C67169DB5D684ED7DB0AF8AB047D16478ED33430BDCDD1F56 ====
REM GENRE SoundtrackREM DATE 2013REM DISCID 490E6F18REM COMMENT "ExactAudioCopy v1.0b3"PERFORMER "Various"TITLE "Despicable Me 2"FILE "01 - CeeLo Green - Scream.wav" WAVE TRACK 01 AUDIO TITLE "Scream" PERFORMER "CeeLo Green" INDEX 01 00:00:00FILE "02 - The Minions - Another Irish Drinking Song.wav" WAVE TRACK 02 AUDIO TITLE "Another Irish Drinking Song" PERFORMER "The Minions" INDEX 01 00:00:00FILE "03 - Pharrell Williams - Just A Cloud Away.wav" WAVE TRACK 03 AUDIO TITLE "Just A Cloud Away" PERFORMER "Pharrell Williams" INDEX 01 00:00:00FILE "04 - Pharrell Williams - Happy.wav" WAVE TRACK 04 AUDIO TITLE "Happy" PERFORMER "Pharrell Williams" INDEX 01 00:00:00FILE "05 - The Minions - I Swear.wav" WAVE TRACK 05 AUDIO TITLE "I Swear" PERFORMER "The Minions" INDEX 01 00:00:00FILE "06 - The Minions - Y.M.C.A..wav" WAVE TRACK 06 AUDIO TITLE "Y.M.C.A." PERFORMER "The Minions" INDEX 01 00:00:00FILE "07 - Pharrell Williams - Fun, Fun, Fun.wav" WAVE TRACK 07 AUDIO TITLE "Fun, Fun, Fun" PERFORMER "Pharrell Williams" INDEX 01 00:00:00FILE "08 - Pharrell Williams - Despicable Me.wav" WAVE TRACK 08 AUDIO TITLE "Despicable Me" PERFORMER "Pharrell Williams" INDEX 01 00:00:00FILE "09 - Heitor Pereira - PX-41 Labs.wav" WAVE TRACK 09 AUDIO TITLE "PX-41 Labs" PERFORMER "Heitor Pereira" INDEX 01 00:00:00FILE "10 - Heitor Pereira - The Fairy Party.wav" WAVE TRACK 10 AUDIO TITLE "The Fairy Party" PERFORMER "Heitor Pereira" INDEX 01 00:00:00FILE "11 - Heitor Pereira - Lucy and the AVL.wav" WAVE TRACK 11 AUDIO TITLE "Lucy and the AVL" PERFORMER "Heitor Pereira" INDEX 01 00:00:00FILE "12 - Heitor Pereira - Goodbye Nefario.wav" WAVE TRACK 12 AUDIO TITLE "Goodbye Nefario" PERFORMER "Heitor Pereira" INDEX 01 00:00:00FILE "13 - Heitor Pereira - Time for Bed.wav" WAVE TRACK 13 AUDIO TITLE "Time for Bed" PERFORMER "Heitor Pereira" INDEX 01 00:00:00FILE "14 - Heitor Pereira - Break-in.wav" WAVE TRACK 14 AUDIO TITLE "Break-in" PERFORMER "Heitor Pereira" INDEX 01 00:00:00FILE "15 - Heitor Pereira - Stalking Floyd Eaglesan.wav" WAVE TRACK 15 AUDIO TITLE "Stalking Floyd Eaglesan" PERFORMER "Heitor Pereira" INDEX 01 00:00:00FILE "16 - Heitor Pereira - Moving To Australia.wav" WAVE TRACK 16 AUDIO TITLE "Moving To Australia" PERFORMER "Heitor Pereira" INDEX 01 00:00:00FILE "17 - Heitor Pereira - Going to Save the World.wav" WAVE TRACK 17 AUDIO TITLE "Going to Save the World" PERFORMER "Heitor Pereira" INDEX 01 00:00:00FILE "18 - Heitor Pereira - El Macho.wav" WAVE TRACK 18 AUDIO TITLE "El Macho" PERFORMER "Heitor Pereira" INDEX 01 00:00:00FILE "19 - Heitor Pereira - Jillian.wav" WAVE TRACK 19 AUDIO TITLE "Jillian" PERFORMER "Heitor Pereira" INDEX 01 00:00:00FILE "20 - Heitor Pereira - Take Her Home.wav" WAVE TRACK 20 AUDIO TITLE "Take Her Home" PERFORMER "Heitor Pereira" INDEX 01 00:00:00FILE "21 - Heitor Pereira - El Macho''s Lair.wav" WAVE TRACK 21 AUDIO TITLE "El Macho''s Lair" PERFORMER "Heitor Pereira" INDEX 01 00:00:00FILE "22 - Heitor Pereira - Home Invasion.wav" WAVE TRACK 22 AUDIO TITLE "Home Invasion" PERFORMER "Heitor Pereira" INDEX 01 00:00:00FILE "23 - Heitor Pereira - The Big Battle.wav" WAVE TRACK 23 AUDIO TITLE "The Big Battle" PERFORMER "Heitor Pereira" INDEX 01 00:00:00FILE "24 - The Minions - Ba Do Bleep.wav" WAVE TRACK 24 AUDIO TITLE "Ba Do Bleep" PERFORMER "The Minions" INDEX 01 00:00:00



Трекер:  [ 25-Сен-2013 08:34 ]

  

Скачать .torrent

Размер .torrent файла 16 KB


Размер: 352 MB
Хэш (hash) релиза: 0d83b5bb397a0815f56444e27b6a4fb7870969f9

Торренты, похожие на Гадкий я 2 Despicable Me 2 скачать торрент

Форум Название Автор Размер S L Добавлен
Саундтреки к фильмам и мультфильмам (mp3) ·· (Score / Soundtrack) Гадкий я 2 / Despicable Me 2 (by Heitor Pereira and Pharrell Williams) - 2013, MP3, 320 kbps Galfimbul 148270089141 MB 2 0 1377010635

17:57

20-Авг-13

Еще никто не оставлял запись к записи скачать торрент Гадкий я 2 Despicable Me 2 . Будь первым!

!Обратная связь